TAIFUN With Song - качественная и редкая музыка
Навигация
Electro Музыкальный стиль, характеризуемый 808-ми барабанами, короткими звуковыми сигналами высокого тона, диско звуками 70-х и компьютерно-обработаными вокалами. Такие стили как техно и "Майами басс" пошли именно от Electro.

А знаете ли Вы, что...
Кто такой Сироб Вокищнеберг, упомянутый в описании альбома «Яблокитай» группы «Наутилус Помпилиус»?
«В описании альбома «Яблокитай» группы «Наутилус Помпилиус» указан некий профессор Сироб Вокищнеберг, играющий на реверсах. Этот таинственный человек никто иной, как Борис Гребенщиков, записанный наоборот. Таким образом удачно обыграли его работу с реверсами — прокручиванием музыкальных фрагментов в обратном направлении.»
 
Опции темы

  #1
Старый 20.07.2020, 00:08
sergych
Координатор
Досье
 
Аватар для sergych
FLAC Various Artists - Vis-À-Vis


1997 - Various Artists - Vis-À-Vis




Исполнитель/Artist: Various Artists
Альбом/Album: Vis-À-Vis
Год/Year: 1997
Жанр/Genre: Electronic, Synth-pop, Electro-pop
Страна/Country: Германия
Рекорд-лейбл/Record label: Visage Records
Номер в каталоге/Catalogue #: SPV 056-43642
Формат/Format: Free Lossless Audio Codec (*.flac)
Качество/Quality: Lossless
Тип рипа/RIP Type: image+.cue


Продолжительность/Length: 01:16:55
Источник/Source: Собственный рип
Размер/Size: 508.2 MB

Сканы в комплекте

Треклист

01. Elegant Machinery / Save Me [0:04:13.55]
02. Daily Planet / Imagination [0:04:26.22]
03. Point Of View / Sweet Sixteen (Guitar Version) [0:03:39.35]
04. Point Of View / It Cannot Be (EP Version) [0:04:39.03]
05. Love? / In Your Hands (Radio Edit) [0:03:05.00]
06. Hybernoid / Trapped [0:05:07.22]
07. Hybernoid / Recoil [0:05:58.63]
08. Mortal / Test Drive [0:09:30.00]
09. Mortal / Morrocan Dip [0:06:11.42]
10. Rame / Club Mix [0:06:12.73]
11. Kinetic Shape / Angels Fall (Radio Edit) [0:03:36.17]
12. Kinetic Shape / The Voice [0:04:43.10]
13. Aqua / Forever In Silence (Radio Edit) [0:03:35.25]
14. Aqua / Foreign Lights [0:03:54.25]
15. Arcanum / Losing Control [0:04:28.70]
16. The Northern Territories / The Devil Slowly Turns (Radio Edit) [0:03:32.63]
[свернуть]

Превью на YouTube

[свернуть]

EAC лог

Exact Audio Copy V1.5 from 20. February 2020

EAC extraction logfile from 17. July 2020, 16:46

Various Artists / Vis-À-Vis

Used drive : PIONEER DVD-RW DVR-220L Adapter: 1 ID: 0

Read mode : Secure
Utilize accurate stream : Yes
Defeat audio cache : Yes
Make use of C2 pointers : No

Read offset correction : 6
Overread into Lead-In and Lead-Out : No
Fill up missing offset samples with silence : Yes
Delete leading and trailing silent blocks : No
Null samples used in CRC calculations : Yes
Used interface : Installed external ASPI interface

Used output format : User Defined Encoder
Selected bitrate : 1024 kBit/s
Quality : High
Add ID3 tag : No
Command line compressor : C:\Program Files (x86)\Exact Audio Copy\Flac\flac.exe
Additional command line options : -6 -V -T "ARTIST=%artist%" -T "TITLE=%title%" -T "ALBUM=%albumtitle%" -T "DATE=%year%" -T "TRACKNUMBER=%tracknr%" -T "GENRE=%genre%" -T "COMMENT=%comment%" -T "BAND=%albuminterpret%" -T "ALBUMARTIST=%albuminterpret%" -T "COMPOSER=%composer%" %haslyrics%--tag-from-file=LYRICS="%lyricsfile%"%haslyrics% -T "DISCNUMBER=%cdnumber%" -T "TOTALDISCS=%totalcds%" -T "TOTALTRACKS=%numtracks%" %hascover%--picture="%coverfile%"%hascover% %source% -o %dest%


TOC of the extracted CD

Track | Start | Length | Start sector | End sector
---------------------------------------------------------
1 | 0:00.00 | 4:13.55 | 0 | 19029
2 | 4:13.55 | 4:26.22 | 19030 | 39001
3 | 8:40.02 | 3:39.35 | 39002 | 55461
4 | 12:19.37 | 4:39.03 | 55462 | 76389
5 | 16:58.40 | 3:05.00 | 76390 | 90264
6 | 20:03.40 | 5:07.22 | 90265 | 113311
7 | 25:10.62 | 5:58.63 | 113312 | 140224
8 | 31:09.50 | 9:30.00 | 140225 | 182974
9 | 40:39.50 | 6:11.42 | 182975 | 210841
10 | 46:51.17 | 6:12.73 | 210842 | 238814
11 | 53:04.15 | 3:36.17 | 238815 | 255031
12 | 56:40.32 | 4:43.10 | 255032 | 276266
13 | 61:23.42 | 3:35.25 | 276267 | 292416
14 | 64:58.67 | 3:54.25 | 292417 | 309991
15 | 68:53.17 | 4:28.70 | 309992 | 330161
16 | 73:22.12 | 3:32.63 | 330162 | 346124


Range status and errors

Selected range

Filename C:\mm\VA\1997 - Vis-A-Vis [SPV 056-43642]\Various Artists - Vis-À-Vis.wav

Peak level 100.0 %
Extraction speed 8.6 X
Range quality 100.0 %
Test CRC 41F34855
Copy CRC 41F34855
Copy OK

No errors occurred


AccurateRip summary

Track 1 accurately ripped (confidence 2) [B9C60340] (AR v2)
Track 2 accurately ripped (confidence 2) [6101AEE6] (AR v2)
Track 3 accurately ripped (confidence 2) [D70017BD] (AR v2)
Track 4 accurately ripped (confidence 2) [F22D583B] (AR v2)
Track 5 accurately ripped (confidence 2) [8EFE82D8] (AR v2)
Track 6 accurately ripped (confidence 2) [62F9E888] (AR v2)
Track 7 accurately ripped (confidence 2) [3F019914] (AR v2)
Track 8 accurately ripped (confidence 2) [042DED8D] (AR v2)
Track 9 accurately ripped (confidence 2) [30F82986] (AR v2)
Track 10 accurately ripped (confidence 2) [2275124E] (AR v2)
Track 11 accurately ripped (confidence 2) [970000C4] (AR v2)
Track 12 accurately ripped (confidence 2) [0B6B8B1C] (AR v2)
Track 13 accurately ripped (confidence 2) [52CE07EC] (AR v2)
Track 14 accurately ripped (confidence 2) [F9BAAA6C] (AR v2)
Track 15 accurately ripped (confidence 2) [1127165C] (AR v2)
Track 16 accurately ripped (confidence 2) [8831D3E6] (AR v2)

All tracks accurately ripped

End of status report

---- CUETools DB Plugin V2.1.6

[CTDB TOCID: PyziJHhjpktHzuYwDIeJPf1SREk-] found
Submit result: PyziJHhjpktHzuYwDIeJPf1SREk- has been confirmed
Track | CTDB Status
1 | (5/5) Accurately ripped
2 | (5/5) Accurately ripped
3 | (5/5) Accurately ripped
4 | (5/5) Accurately ripped
5 | (5/5) Accurately ripped
6 | (5/5) Accurately ripped
7 | (5/5) Accurately ripped
8 | (5/5) Accurately ripped
9 | (5/5) Accurately ripped
10 | (5/5) Accurately ripped
11 | (5/5) Accurately ripped
12 | (5/5) Accurately ripped
13 | (5/5) Accurately ripped
14 | (5/5) Accurately ripped
15 | (5/5) Accurately ripped
16 | (5/5) Accurately ripped
[свернуть]

Файл CUE

REM DATE 1997
REM DISCID B7120710
REM COMMENT "ExactAudioCopy v1.5"
PERFORMER "Various Artists"
TITLE "Vis-A-Vis"
REM COMPOSER ""
FILE "Various Artists - Vis-A-Vis.flac" WAVE
TRACK 01 AUDIO
TITLE "Save Me"
PERFORMER "Elegant Machinery"
REM COMPOSER ""
INDEX 01 00:00:00
TRACK 02 AUDIO
TITLE "Imagination"
PERFORMER "Daily Planet"
REM COMPOSER ""
INDEX 00 04:13:02
INDEX 01 04:13:55
TRACK 03 AUDIO
TITLE "Sweet Sixteen (Guitar Version)"
PERFORMER "Point Of View"
REM COMPOSER ""
INDEX 00 08:39:40
INDEX 01 08:40:02
TRACK 04 AUDIO
TITLE "It Cannot Be (EP Version)"
PERFORMER "Point Of View"
REM COMPOSER ""
INDEX 00 12:18:50
INDEX 01 12:19:37
TRACK 05 AUDIO
TITLE "In Your Hands (Radio Edit)"
PERFORMER "Love?"
REM COMPOSER ""
INDEX 00 16:58:02
INDEX 01 16:58:40
TRACK 06 AUDIO
TITLE "Trapped"
PERFORMER "Hybernoid"
REM COMPOSER ""
INDEX 00 20:03:10
INDEX 01 20:03:40
TRACK 07 AUDIO
TITLE "Recoil"
PERFORMER "Hybernoid"
REM COMPOSER ""
INDEX 00 25:10:22
INDEX 01 25:10:62
TRACK 08 AUDIO
TITLE "Test Drive"
PERFORMER "Mortal"
REM COMPOSER ""
INDEX 00 31:08:55
INDEX 01 31:09:50
TRACK 09 AUDIO
TITLE "Morrocan Dip"
PERFORMER "Mortal"
REM COMPOSER ""
INDEX 00 40:38:72
INDEX 01 40:39:50
TRACK 10 AUDIO
TITLE "Club Mix"
PERFORMER "Rame"
REM COMPOSER ""
INDEX 00 46:51:10
INDEX 01 46:51:17
TRACK 11 AUDIO
TITLE "Angels Fall (Radio Edit)"
PERFORMER "Kinetic Shape"
REM COMPOSER ""
INDEX 00 53:03:47
INDEX 01 53:04:15
TRACK 12 AUDIO
TITLE "The Voice"
PERFORMER "Kinetic Shape"
REM COMPOSER ""
INDEX 00 56:38:50
INDEX 01 56:40:32
TRACK 13 AUDIO
TITLE "Forever In Silence (Radio Edit)"
PERFORMER "Aqua"
REM COMPOSER ""
INDEX 00 61:22:67
INDEX 01 61:23:42
TRACK 14 AUDIO
TITLE "Foreign Lights"
PERFORMER "Aqua"
REM COMPOSER ""
INDEX 00 64:57:55
INDEX 01 64:58:67
TRACK 15 AUDIO
TITLE "Losing Control"
PERFORMER "Arcanum"
REM COMPOSER ""
INDEX 00 68:51:70
INDEX 01 68:53:17
TRACK 16 AUDIO
TITLE "The Devil Slowly Turns (Radio Edit)"
PERFORMER "The Northern Territories"
REM COMPOSER ""
INDEX 00 73:20:42
INDEX 01 73:22:12
[свернуть]

Лог проверки качества

AUDIOCHECKER v2.0 beta (build 457) - by Dester - [Ссылки могут видеть только зарегистрированные и активированные пользователи.]
[Only registered and activated users can see links.]
~~~~~~~~~~~~~~~~~~~~~~~~~~~~~~~~~~
-=== НЕ РЕДАКТИРУЙТЕ ЭТОТ ФАЙЛ! ===-

Путь: ...\1997 - Vis-A-Vis [SPV 056-43642]

1 -=- Various Artists - Vis-A-Vis.flac -=- CDDA (99%)

65296020
--------------------
PERFORMER: auCDtect Task Manager, ver. 1.6.0 RC1 build 1.6.0.1
Copyright © 2008-2010 y-soft. All rights reserved
[Ссылки могут видеть только зарегистрированные и активированные пользователи.]
[Only registered and activated users can see links.]

ANALYZER: auCDtect: CD records authenticity detector, version 0.8.2
Copyright © 2004 Oleg Berngardt. All rights reserved.
Copyright © 2004 Alexander Djourik. All rights reserved.


FILE: Various Artists - Vis-A-Vis.flac
Size: 527410765 Hash: CB56BC16B68F2D9318667C25BAD99FC7 Accuracy: -m8
Conclusion: CDDA 100%
Signature: F7B9383EB129616541C25BCB24D213AE64F38716
[свернуть]

Спектр частот

[свернуть]

Скачать Various Artists - Vis-À-Vis

[Ссылки могут видеть только зарегистрированные и активированные пользователи.]
[Only registered and activated users can see links.]

password: sergych
[свернуть]

Контрольная сумма (хеш-сумма) архива

MD5: 90a638ff0a0092bda949294fdde1a2f5
[свернуть]
My opinion of release: 8/10
__________________
TAIFUN.Wings of Soul

sergych вне форума  
Вверх
Пользователь сказал cпасибо:
TAIFUN (20.07.2020)
 
Похожие темы
Тема Автор Раздел Ответов Последнее сообщение
Сборник Various Artists - Electric Bossa sergych Jazz и Blues 0 25.04.2020 10:38
Сборник Various Artists - The Best Of Swing sergych Jazz и Blues 0 04.05.2017 18:24
Сборник Various Artists - Electro Swing III sergych Jazz и Blues 0 26.04.2017 17:52
Сборник Various Artists - Just Tell Me That You Want Me {A Tribute to Fleetwood Mac} sergych Blues Rock 0 27.05.2016 21:02
Сборник Various Artists - Bossa Nova U.S.A. sergych Jazz и Blues 0 06.06.2013 10:25


Метки
1997 , electro-pop , electronic , synth-pop , various artists , vis-à-vis

Опции темы

Ваши права в разделе
Вы не можете создавать новые темы
Вы не можете отвечать в темах
Вы не можете прикреплять вложения
Вы не можете редактировать свои сообщения

Быстрый переход


Текущее время: 19:15. Часовой пояс GMT +3.

© 2008 - 2022 Taifun With Song
Powered by vBulletin® Version 3.8.10
Copyright ©2000 - 2022, vBulletin Solutions, Inc. Перевод: zCarot
При поддержке NIC.UA
0.84837 сек. | MySQL: 16