TAIFUN With Song - качественная и редкая музыка
Навигация
Indie Rock Жанр альтернативного рока, существующий преимущественно в андерграунде, в независимом информационно-коммерческом пространстве.

А знаете ли Вы, что...
Кто начал писать музыку в 5 лет?
«Вольфганг Амадей Моцарт начал сочинять музыку в 5 лет.»
 
Опции темы

  #1
Старый 07.08.2014, 09:52
sergych
Координатор
Досье
 
Аватар для sergych
FLAC Fool's Garden - 25 miles to Kissimmee


2003 - Fool's Garden - 25 miles to Kissimmee




Исполнитель/Artist: Fool's Garden
Альбом/Album: 25 miles to Kissimmee
Год/Year: 2003
Жанр/Genre: Alternative Rock, Indie Rock
Страна/Country: Южная Корея
Рекорд-лейбл/Record label: MRC / One Music
Номер в каталоге/Catalogue #: MRC0401 / ERCD360
Формат/Format: Free Lossless Audio Codec (*.flac)
Качество/Quality: Lossless
Тип рипа/RIP Type: image+.cue
Продолжительность/Length: 00:54:11
Источник/Source: Собственный рип
Размер/Size: 430.7 MB + 896.7 MB (dvd)

Сканы в комплекте

Треклист

01. Closer [0:04:04.51]
02. Tears run dry [0:05:42.22]
03. Dreaming [0:03:52.08]
04. Bighouse pyromaniac [0:03:21.26]
05. Bighouse (Reprise) [0:01:12.67]
06. Material world [0:04:39.46]
07. Reason [0:04:32.11]
08. Glory [0:04:41.39]
09. 25 miles to Kissimmee [0:03:38.11]
10. Silence [0:04:02.20]
11. I won't kill myself [0:03:23.01]
12. Ismael [0:03:41.66]
13. Rolling home [0:02:49.04]
14. Closer (2001 Version) [0:04:30.22]

Bonus DVD:
Dreaming (video)
Live in Lithuania
Unplugged
[свернуть]

youtube.com

[свернуть]

Исполнители/Performers

Peter Freudenthaler – vocals
Volker Hinkel – guitars, programming, backing vocals
Roland Röhl – keyboards
Thomas Mangold – bass
Ralf Wochele – drums
Hellmut Hattler – bass on "Tears Run Dry", "Material World" and "I Won't Kill Myself"
Jochen Schmalbach – drums and programming on "Tears Run Dry", "Material World" and "25 Miles to Kissimmee"
[свернуть]

EAC лог

Exact Audio Copy V1.0 beta 3 from 29. August 2011

EAC extraction logfile from 7. August 2014, 3:44

Fools Garden / 25 miles to Kissimmee

Used drive : ATAPI iHAS124 D Adapter: 0 ID: 2

Read mode : Secure
Utilize accurate stream : Yes
Defeat audio cache : Yes
Make use of C2 pointers : No

Read offset correction : 6
Overread into Lead-In and Lead-Out : No
Fill up missing offset samples with silence : Yes
Delete leading and trailing silent blocks : No
Null samples used in CRC calculations : Yes
Used interface : Installed external ASPI interface

Used output format : User Defined Encoder
Selected bitrate : 1024 kBit/s
Quality : High
Add ID3 tag : No
Command line compressor : C:\Program Files (x86)\Exact Audio Copy\Flac\flac.exe
Additional command line options : -6 -V -T "ARTIST=%artist%" -T "TITLE=%title%" -T "ALBUM=%albumtitle%" -T "DATE=%year%" -T "TRACKNUMBER=%tracknr%" -T "GENRE=%genre%" -T "COMMENT=%comment%" -T "BAND=%albuminterpret%" -T "COMPOSER=%composer%" %haslyrics%--tag-from-file=LYRICS="%lyricsfile%"%haslyrics% -T "DISCNUMBER=%cdnumber%" -T "TOTALDISCS=%totalcds%" -T "TOTALTRACKS=%numtracks%" %hascover%--picture="%coverfile%"%hascover% %source% -o %dest%


TOC of the extracted CD

Track | Start | Length | Start sector | End sector
---------------------------------------------------------
1 | 0:00.00 | 4:04.51 | 0 | 18350
2 | 4:04.51 | 5:42.22 | 18351 | 44022
3 | 9:46.73 | 3:52.08 | 44023 | 61430
4 | 13:39.06 | 3:21.26 | 61431 | 76531
5 | 17:00.32 | 1:12.67 | 76532 | 81998
6 | 18:13.24 | 4:39.46 | 81999 | 102969
7 | 22:52.70 | 4:32.11 | 102970 | 123380
8 | 27:25.06 | 4:41.39 | 123381 | 144494
9 | 32:06.45 | 3:38.11 | 144495 | 160855
10 | 35:44.56 | 4:02.20 | 160856 | 179025
11 | 39:47.01 | 3:23.01 | 179026 | 194251
12 | 43:10.02 | 3:41.66 | 194252 | 210892
13 | 46:51.68 | 2:49.04 | 210893 | 223571
14 | 49:40.72 | 4:30.22 | 223572 | 243843


Range status and errors

Selected range

Filename C:\mm\Fool's Garden\2003 - 25 Miles To Kissimmee [MRC0401_ERCD360]\Fools Garden - 25 miles to Kissimmee.wav

Peak level 100.0 %
Extraction speed 8.8 X
Range quality 99.9 %
Test CRC A3B7728B
Copy CRC A3B7728B
Copy OK

No errors occurred


AccurateRip summary

Track 1 cannot be verified as accurate (confidence 2) [123C5615], AccurateRip returned [68A53489] (AR v2)
Track 2 cannot be verified as accurate (confidence 2) [BAB238D7], AccurateRip returned [3A22EC4A] (AR v2)
Track 3 cannot be verified as accurate (confidence 2) [BDCBA72D], AccurateRip returned [6FB68A36] (AR v2)
Track 4 cannot be verified as accurate (confidence 2) [9526C8D2], AccurateRip returned [B047DB65] (AR v2)
Track 5 cannot be verified as accurate (confidence 2) [F82134D9], AccurateRip returned [F1978CD6] (AR v2)
Track 6 cannot be verified as accurate (confidence 2) [CC9B3CE1], AccurateRip returned [AC5C7957] (AR v2)
Track 7 cannot be verified as accurate (confidence 2) [24C29777], AccurateRip returned [C8402FB9] (AR v2)
Track 8 cannot be verified as accurate (confidence 2) [510175D8], AccurateRip returned [779130FE] (AR v2)
Track 9 cannot be verified as accurate (confidence 2) [EF496D00], AccurateRip returned [B7A9BCAF] (AR v2)
Track 10 cannot be verified as accurate (confidence 2) [9FA7BEDB], AccurateRip returned [979D3CCF] (AR v2)
Track 11 cannot be verified as accurate (confidence 2) [261AEAAD], AccurateRip returned [364C27C2] (AR v2)
Track 12 cannot be verified as accurate (confidence 2) [14CDF88D], AccurateRip returned [F1EA5818] (AR v2)
Track 13 cannot be verified as accurate (confidence 2) [11161D8F], AccurateRip returned [F54CA517] (AR v2)
Track 14 cannot be verified as accurate (confidence 2) [7CFFD9A9], AccurateRip returned [EEA05C92] (AR v2)

No tracks could be verified as accurate
You may have a different pressing from the one(s) in the database

End of status report
[свернуть]

Файл CUE

REM GENRE Rock
REM DATE 2003
REM DISCID CF0CB30E
REM COMMENT "ExactAudioCopy v1.0b3"
PERFORMER "Fools Garden"
TITLE "25 miles to Kissimmee "
FILE "Fools Garden - 25 miles to Kissimmee.flac" WAVE
TRACK 01 AUDIO
TITLE "Closer"
PERFORMER "Fools Garden"
INDEX 01 00:00:00
TRACK 02 AUDIO
TITLE "Tears run dry"
PERFORMER "Fools Garden"
INDEX 00 04:02:48
INDEX 01 04:04:51
TRACK 03 AUDIO
TITLE "Dreaming"
PERFORMER "Fools Garden"
INDEX 01 09:46:73
TRACK 04 AUDIO
TITLE "Bighouse pyromaniac"
PERFORMER "Fools Garden"
INDEX 00 13:38:07
INDEX 01 13:39:06
TRACK 05 AUDIO
TITLE "Bighouse (Reprise)"
PERFORMER "Fools Garden"
INDEX 01 17:00:32
TRACK 06 AUDIO
TITLE "Material world"
PERFORMER "Fools Garden"
INDEX 00 18:12:35
INDEX 01 18:13:24
TRACK 07 AUDIO
TITLE "Reason"
PERFORMER "Fools Garden"
INDEX 00 22:50:05
INDEX 01 22:52:70
TRACK 08 AUDIO
TITLE "Glory"
PERFORMER "Fools Garden"
INDEX 01 27:25:06
TRACK 09 AUDIO
TITLE "25 miles to Kissimmee"
PERFORMER "Fools Garden"
INDEX 01 32:06:45
TRACK 10 AUDIO
TITLE "Silence"
PERFORMER "Fools Garden"
INDEX 00 35:41:70
INDEX 01 35:44:56
TRACK 11 AUDIO
TITLE "I won't kill myself"
PERFORMER "Fools Garden"
INDEX 00 39:44:47
INDEX 01 39:47:01
TRACK 12 AUDIO
TITLE "Ismael"
PERFORMER "Fools Garden"
INDEX 01 43:10:02
TRACK 13 AUDIO
TITLE "Rolling home"
PERFORMER "Fools Garden"
INDEX 01 46:51:68
TRACK 14 AUDIO
TITLE "Closer (2001 Version)"
PERFORMER "Fools Garden"
INDEX 00 49:39:08
INDEX 01 49:40:72
[свернуть]

Лог проверки качества

AUDIOCHECKER v2.0 beta (build 457) - by Dester - [Ссылки могут видеть только зарегистрированные и активированные пользователи.]
[Only registered and activated users can see links.]
~~~~~~~~~~~~~~~~~~~~~~~~~~~~~~~~~~
-=== НЕ РЕДАКТИРУЙТЕ ЭТОТ ФАЙЛ! ===-

Путь: ...\2003 - 25 Miles To Kissimmee [MRC0401_ERCD360]

1 -=- Fools Garden - 25 miles to Kissimmee.flac -=- CDDA (100%)

147199060
[свернуть]

Спектр частот

[свернуть]

Скачать Fool's Garden - 25 miles to Kissimmee

[Ссылки могут видеть только зарегистрированные и активированные пользователи.]
[Only registered and activated users can see links.]

password: sergych

[Ссылки могут видеть только зарегистрированные и активированные пользователи.]
[Only registered and activated users can see links.]
[свернуть]
My rating to this release: 8/10

Release info RInfo

6-й (и последний в оригинальном составе) студийник Fool's Garden
__________________
TAIFUN.Wings of Soul


Последний раз редактировалось sergych, 19.08.2020 в 23:33. Причина: добавил двд
sergych вне форума  
Вверх
2 пользователя(ей) сказали cпасибо:
aheron (09.08.2014), Bumbum (15.08.2014)
 
  #2
Старый 19.08.2020, 23:34
sergych
Координатор
Досье
 
Аватар для sergych
По умолчанию Re: Fool's Garden - 25 miles to Kissimmee

добавил образ dvd в формате iso
__________________
TAIFUN.Wings of Soul

sergych вне форума  
Вверх
Пользователь сказал cпасибо:
TAIFUN (20.08.2020)
Похожие темы
Тема Автор Раздел Ответов Последнее сообщение
Сингл Fool's Garden - Wild Days sergych Pop Rock 0 30.04.2014 21:44
Сингл Fool's Garden - Lemon Tree sergych Pop Rock 0 30.04.2014 20:42
Альбом Fool's Garden - For Sale sergych Pop Rock 0 18.06.2013 20:25
Альбом Fool's Garden - Go And Ask Peggy For The Principal Thing sergych Pop Rock 0 16.06.2013 04:36
Альбом Fool's Garden - Dish Of The Day sergych Pop Rock 0 15.06.2013 17:15


Метки
2003 , 25 miles to kissimmee , alternative rock , fool's garden , fools garden , indie rock

Опции темы

Ваши права в разделе
Вы не можете создавать новые темы
Вы не можете отвечать в темах
Вы не можете прикреплять вложения
Вы не можете редактировать свои сообщения

Быстрый переход


Текущее время: 15:39. Часовой пояс GMT +3.

©2008 - 2024 Taifun With Song
Powered by vBulletin® Version 3.8.10
Copyright ©2000 - 2024, vBulletin Solutions, Inc. Перевод: zCarot
При поддержке NIC.UA
0.98607 сек. | MySQL: 16