TAIFUN With Song - качественная и редкая музыка
Навигация
Folk (народная) Традиционная музыка отдельно взятого народа или культуры. Она несёт в себе частичку самобытности народа, отражает его ментальность.

А знаете ли Вы, что...
Как появился псевдоним украинской певицы Ани Лорак?
«Украинская певица Каролина Куек стала известна под псевдонимом Ани Лорак благодаря конкурсу «Утренняя звезда-95». Дело в том, что там уже была заявлена другая российская певица под именем Каролина, поэтому украинке пришлось выйти из положения, написав своё имя наоборот.»
 
Опции темы

  #1
Старый 08.05.2014, 22:12
sergych
Координатор
Досье
 
Аватар для sergych
Релиз Leonard Cohen - The Best Of Leonard Cohen


1975 - Leonard Cohen - The Best Of Leonard Cohen




Исполнитель/Artist: Leonard Cohen
Альбом/Album: The Best Of Leonard Cohen
Год/Year: 1975
Жанр/Genre: Contemporary Folk
Страна/Country: Соединённые Штаты
Рекорд-лейбл/Record label: Columbia
Номер в каталоге/Catalogue #: CK 34077
Формат/Format: Free Lossless Audio Codec (*.flac)
Качество/Quality: Lossless
Тип рипа/RIP Type: image+.cue
Продолжительность/Length: 00:46:52
Источник/Source: Собственный рип
Размер/Size: 228.6 MB

Сканы в комплекте

Треклист

01. Suzanne [0:03:50.25]
02. Sisters Of Mercy [0:03:35.62]
03. So Long, Marianne [0:05:41.00]
04. Bird On The Wire [0:03:27.30]
05. Lady Midnight [0:02:59.25]
06. The Partisan [0:03:24.28]
07. Hey, That's No Way To Say Goodbye [0:02:57.40]
08. Famous Blue Raincoat [0:05:09.67]
09. Last Year's Man [0:05:59.63]
10. Chelsea Hotel No. 2 [0:03:07.10]
11. Who By Fire [0:02:32.59]
12. Take This Longing [0:04:06.66]
[свернуть]

youtube.com

[свернуть]

EAC лог

Exact Audio Copy V1.0 beta 3 from 29. August 2011

EAC extraction logfile from 8. May 2014, 20:23

Leonard Cohen / The Best Of Leonard Cohen

Used drive : ATAPI iHAS124 D Adapter: 0 ID: 2

Read mode : Secure
Utilize accurate stream : Yes
Defeat audio cache : Yes
Make use of C2 pointers : No

Read offset correction : 6
Overread into Lead-In and Lead-Out : No
Fill up missing offset samples with silence : Yes
Delete leading and trailing silent blocks : No
Null samples used in CRC calculations : Yes
Used interface : Installed external ASPI interface

Used output format : User Defined Encoder
Selected bitrate : 1024 kBit/s
Quality : High
Add ID3 tag : No
Command line compressor : C:\Program Files (x86)\Exact Audio Copy\Flac\flac.exe
Additional command line options : -6 -V -T "ARTIST=%artist%" -T "TITLE=%title%" -T "ALBUM=%albumtitle%" -T "DATE=%year%" -T "TRACKNUMBER=%tracknr%" -T "GENRE=%genre%" -T "COMMENT=%comment%" -T "BAND=%albuminterpret%" -T "COMPOSER=%composer%" %haslyrics%--tag-from-file=LYRICS="%lyricsfile%"%haslyrics% -T "DISCNUMBER=%cdnumber%" -T "TOTALDISCS=%totalcds%" -T "TOTALTRACKS=%numtracks%" %hascover%--picture="%coverfile%"%hascover% %source% -o %dest%


TOC of the extracted CD

Track | Start | Length | Start sector | End sector
---------------------------------------------------------
1 | 0:00.00 | 3:50.25 | 0 | 17274
2 | 3:50.25 | 3:35.62 | 17275 | 33461
3 | 7:26.12 | 5:41.00 | 33462 | 59036
4 | 13:07.12 | 3:27.30 | 59037 | 74591
5 | 16:34.42 | 2:59.25 | 74592 | 88041
6 | 19:33.67 | 3:24.28 | 88042 | 103369
7 | 22:58.20 | 2:57.40 | 103370 | 116684
8 | 25:55.60 | 5:09.67 | 116685 | 139926
9 | 31:05.52 | 5:59.63 | 139927 | 166914
10 | 37:05.40 | 3:07.10 | 166915 | 180949
11 | 40:12.50 | 2:32.59 | 180950 | 192408
12 | 42:45.34 | 4:06.66 | 192409 | 210924


Range status and errors

Selected range

Filename C:\mm\Leonard Cohen\1975 - The Best Of [CK 34077]\Leonard Cohen - The Best Of Leonard Cohen.wav

Peak level 86.3 %
Extraction speed 8.5 X
Range quality 100.0 %
Test CRC 9E80BF1C
Copy CRC 9E80BF1C
Copy OK

No errors occurred


AccurateRip summary

Track 1 accurately ripped (confidence 8) [58891233] (AR v2)
Track 2 accurately ripped (confidence 9) [B6CD447B] (AR v2)
Track 3 accurately ripped (confidence 9) [BC3D1D4C] (AR v2)
Track 4 accurately ripped (confidence 9) [C8331B3F] (AR v2)
Track 5 accurately ripped (confidence 8) [78F4E68F] (AR v2)
Track 6 accurately ripped (confidence 8) [AABCB40E] (AR v2)
Track 7 accurately ripped (confidence 9) [5EB52A4F] (AR v2)
Track 8 accurately ripped (confidence 9) [A3A3F086] (AR v2)
Track 9 accurately ripped (confidence 8) [7D6A0880] (AR v2)
Track 10 accurately ripped (confidence 8) [D5FF5916] (AR v2)
Track 11 accurately ripped (confidence 8) [579675DA] (AR v2)
Track 12 accurately ripped (confidence 8) [C91A4FB4] (AR v2)

All tracks accurately ripped

End of status report
[свернуть]

Файл CUE

REM GENRE Folk
REM DATE 1975
REM DISCID B70AFC0C
REM COMMENT "ExactAudioCopy v1.0b3"
PERFORMER "Leonard Cohen"
TITLE "The Best Of Leonard Cohen"
FILE "Leonard Cohen - The Best Of Leonard Cohen.flac" WAVE
TRACK 01 AUDIO
TITLE "Suzanne"
PERFORMER "Leonard Cohen"
INDEX 01 00:00:00
TRACK 02 AUDIO
TITLE "Sisters Of Mercy"
PERFORMER "Leonard Cohen"
INDEX 00 03:49:12
INDEX 01 03:50:25
TRACK 03 AUDIO
TITLE "So Long, Marianne"
PERFORMER "Leonard Cohen"
INDEX 00 07:24:10
INDEX 01 07:26:12
TRACK 04 AUDIO
TITLE "Bird On The Wire"
PERFORMER "Leonard Cohen"
INDEX 00 13:04:27
INDEX 01 13:07:12
TRACK 05 AUDIO
TITLE "Lady Midnight"
PERFORMER "Leonard Cohen"
INDEX 00 16:31:62
INDEX 01 16:34:42
TRACK 06 AUDIO
TITLE "The Partisan"
PERFORMER "Leonard Cohen"
INDEX 00 19:31:20
INDEX 01 19:33:67
TRACK 07 AUDIO
TITLE "Hey, That's No Way To Say Goodbye"
PERFORMER "Leonard Cohen"
INDEX 00 22:57:07
INDEX 01 22:58:20
TRACK 08 AUDIO
TITLE "Famous Blue Raincoat"
PERFORMER "Leonard Cohen"
INDEX 00 25:53:60
INDEX 01 25:55:60
TRACK 09 AUDIO
TITLE "Last Year's Man"
PERFORMER "Leonard Cohen"
INDEX 00 31:03:30
INDEX 01 31:05:52
TRACK 10 AUDIO
TITLE "Chelsea Hotel No. 2"
PERFORMER "Leonard Cohen"
INDEX 00 37:02:70
INDEX 01 37:05:40
TRACK 11 AUDIO
TITLE "Who By Fire"
PERFORMER "Leonard Cohen"
INDEX 00 40:10:00
INDEX 01 40:12:50
TRACK 12 AUDIO
TITLE "Take This Longing"
PERFORMER "Leonard Cohen"
INDEX 00 42:44:25
INDEX 01 42:45:34
[свернуть]

Лог проверки качества

AUDIOCHECKER v2.0 beta (build 457) - by Dester - [Ссылки могут видеть только зарегистрированные и активированные пользователи.]
[Only registered and activated users can see links.]
~~~~~~~~~~~~~~~~~~~~~~~~~~~~~~~~~~
-=== НЕ РЕДАКТИРУЙТЕ ЭТОТ ФАЙЛ! ===-

Путь: ...\1975 - The Best Of [CK 34077]

1 -=- Leonard Cohen - The Best Of Leonard Cohen.flac -=- CDDA (100%)

223906484
[свернуть]

Спектр частот

[свернуть]

Скачать Leonard Cohen - The Best Of Leonard Cohen

[Ссылки могут видеть только зарегистрированные и активированные пользователи.]
[Only registered and activated users can see links.]

password: sergych
[свернуть]
My opinion of release: 9/10
__________________
TAIFUN.Wings of Soul

sergych вне форума  
Вверх
Пользователь сказал cпасибо:
Guilli (01.02.2020)
 
Похожие темы
Тема Автор Раздел Ответов Последнее сообщение
Альбом Leonard Cohen - The Future sergych Pop Rock 0 25.04.2014 18:42
Альбом Leonard Cohen - Songs Of Leonard Cohen henrik Pop Rock 0 05.11.2008 23:23
Альбом Leonard Cohen - Various Positions henrik Pop Rock 0 05.11.2008 23:23
Альбом Leonard Cohen - I'm Your Man henrik Pop Rock 0 05.11.2008 23:23
Альбом Leonard Cohen - Ten New Songs henrik Pop Rock 0 05.11.2008 23:23


Метки
1975 , contemporary folk , leonard cohen , the best of leonard cohen

Опции темы

Ваши права в разделе
Вы не можете создавать новые темы
Вы не можете отвечать в темах
Вы не можете прикреплять вложения
Вы не можете редактировать свои сообщения

Быстрый переход


Текущее время: 02:47. Часовой пояс GMT +3.

© 2008 - 2022 Taifun With Song
Powered by vBulletin® Version 3.8.10
Copyright ©2000 - 2022, vBulletin Solutions, Inc. Перевод: zCarot
При поддержке NIC.UA
0.18770 сек. | MySQL: 16