TAIFUN With Song - качественная и редкая музыка
Навигация
Soft Rock Это музыкальный стиль, который использует технику рок-н-ролла чтобы достичь более мягкого, более приятного для слуха звука, чтобы такую музыку было приятно слушать, например, на работе или за рулем. Soft rock всегда поется с высокими голосами, если певец мужчина, то он будет петь фальцетом, слова soft rock’а всегда сфокусированы на приятные темы, такие, как любовь, ежедневная жизнь и дружба.

А знаете ли Вы, что...
Как реагировала Монсеррат Кабалье, если кто-либо из зрителей записывал концерт на магнитофон?
«Монсеррат Кабалье иногда на своих концертах прибегала к следующей шутке. Если кто-либо из зрителей записывал концерт на магнитофон, и в какой-то момент ему надо было перевернуть кассету, Кабалье прекращала петь. Помолчав несколько секунд, она говорила: «Кивните мне, когда можно будет продолжать».»
 
Опции темы

  #1
Старый 28.12.2013, 20:47
sergych
Координатор
Досье
 
Аватар для sergych
FLAC 10cc - Best Of The 70's


2000 - 10cc - Best Of The 70's




Исполнитель/Artist: 10cc
Альбом/Album: Best Of The 70's
Год/Year: 2000
Жанр/Genre: Rock, Art Rock, Soft Rock
Страна/Country: Нидерланды
Рекорд-лейбл/Record label: Disky
Номер в каталоге/Catalogue #: SI 990292
Формат/Format: Free Lossless Audio Codec (*.flac)
Качество/Quality: Lossless
Тип рипа/RIP Type: image+.cue



Продолжительность/Length: 01:05:49
Источник/Source: Собственный рип
Размер/Size: 518.7 MB

Сканы в комплекте

Треклист

01. The Wall Street Shuffle [0:03:53.02]
02. Donna [0:02:55.17]
03. Rubber Bullets [0:05:16.65]
04. Johnny Don't Do It [0:03:36.39]
05. Sand In My Face [0:03:38.14]
06. The Dean And I [0:03:03.71]
07. Headline Hustler [0:03:32.25]
08. The Hospital Song [0:02:42.56]
09. Speed Kills [0:03:47.25]
10. Clockwork Creep [0:02:44.52]
11. Hotel [0:04:50.02]
12. Oh! Effendi [0:02:50.59]
13. Old Wild Men [0:03:19.46]
14. The Sacro-Iliac [0:02:31.52]
15. Silly Love [0:03:58.54]
16. Somewhere In Hollywood [0:06:37.52]
17. Baron Samedi [0:03:44.47]
18. The Worst Band In The World [0:02:45.15]
[свернуть]

youtube.com

[свернуть]

EAC лог

Exact Audio Copy V1.0 beta 3 from 29. August 2011

EAC extraction logfile from 28. December 2013, 23:55

10CC / Best Of The 70's

Used drive : ATAPI iHAS124 D Adapter: 0 ID: 2

Read mode : Secure
Utilize accurate stream : Yes
Defeat audio cache : Yes
Make use of C2 pointers : Yes

Read offset correction : 6
Overread into Lead-In and Lead-Out : No
Fill up missing offset samples with silence : Yes
Delete leading and trailing silent blocks : No
Null samples used in CRC calculations : Yes
Used interface : Installed external ASPI interface

Used output format : User Defined Encoder
Selected bitrate : 1024 kBit/s
Quality : High
Add ID3 tag : No
Command line compressor : C:\Program Files (x86)\Exact Audio Copy\Flac\flac.exe
Additional command line options : -6 -V -T "ARTIST=%artist%" -T "TITLE=%title%" -T "ALBUM=%albumtitle%" -T "DATE=%year%" -T "TRACKNUMBER=%tracknr%" -T "GENRE=%genre%" -T "COMMENT=%comment%" -T "BAND=%albuminterpret%" -T "COMPOSER=%composer%" %haslyrics%--tag-from-file=LYRICS="%lyricsfile%"%haslyrics% -T "DISCNUMBER=%cdnumber%" -T "TOTALDISCS=%totalcds%" -T "TOTALTRACKS=%numtracks%" %hascover%--picture="%coverfile%"%hascover% %source% -o %dest%


TOC of the extracted CD

Track | Start | Length | Start sector | End sector
---------------------------------------------------------
1 | 0:00.00 | 3:53.02 | 0 | 17476
2 | 3:53.02 | 2:55.17 | 17477 | 30618
3 | 6:48.19 | 5:16.65 | 30619 | 54383
4 | 12:05.09 | 3:36.39 | 54384 | 70622
5 | 15:41.48 | 3:38.14 | 70623 | 86986
6 | 19:19.62 | 3:03.71 | 86987 | 100782
7 | 22:23.58 | 3:32.25 | 100783 | 116707
8 | 25:56.08 | 2:42.56 | 116708 | 128913
9 | 28:38.64 | 3:47.25 | 128914 | 145963
10 | 32:26.14 | 2:44.52 | 145964 | 158315
11 | 35:10.66 | 4:50.02 | 158316 | 180067
12 | 40:00.68 | 2:50.59 | 180068 | 192876
13 | 42:51.52 | 3:19.46 | 192877 | 207847
14 | 46:11.23 | 2:31.52 | 207848 | 219224
15 | 48:43.00 | 3:58.54 | 219225 | 237128
16 | 52:41.54 | 6:37.52 | 237129 | 266955
17 | 59:19.31 | 3:44.47 | 266956 | 283802
18 | 63:04.03 | 2:45.15 | 283803 | 296192


Range status and errors

Selected range

Filename C:\mm\10cc\2000 - Best Of The 70's [SI 990292]\10CC - Best Of The 70's.wav

Peak level 97.7 %
Extraction speed 14.1 X
Range quality 99.9 %
Test CRC 2D24065F
Copy CRC 2D24065F
Copy OK

No errors occurred


AccurateRip summary

Track 1 accurately ripped (confidence 6) [BC0A787B] (AR v2)
Track 2 accurately ripped (confidence 6) [110913CB] (AR v2)
Track 3 accurately ripped (confidence 6) [58AD62C9] (AR v2)
Track 4 accurately ripped (confidence 5) [395DAEB9] (AR v2)
Track 5 accurately ripped (confidence 6) [26EF2036] (AR v2)
Track 6 accurately ripped (confidence 6) [9A14EDC4] (AR v2)
Track 7 accurately ripped (confidence 6) [5097380F] (AR v2)
Track 8 accurately ripped (confidence 6) [8F79A8C5] (AR v2)
Track 9 accurately ripped (confidence 6) [4C354361] (AR v2)
Track 10 accurately ripped (confidence 6) [2D2547BE] (AR v2)
Track 11 accurately ripped (confidence 6) [827EC87B] (AR v2)
Track 12 accurately ripped (confidence 6) [B9F5F975] (AR v2)
Track 13 accurately ripped (confidence 6) [128CAF9B] (AR v2)
Track 14 accurately ripped (confidence 6) [C38E257A] (AR v2)
Track 15 accurately ripped (confidence 6) [48522FC1] (AR v2)
Track 16 accurately ripped (confidence 6) [6312539B] (AR v2)
Track 17 accurately ripped (confidence 6) [C3D2A349] (AR v2)
Track 18 accurately ripped (confidence 6) [1F229936] (AR v2)

All tracks accurately ripped

End of status report
[свернуть]

Файл CUE

REM DATE 2000
REM DISCID F20F6D12
REM COMMENT "ExactAudioCopy v1.0b3"
PERFORMER "10CC"
TITLE "Best Of The 70's"
FILE "10CC - Best Of The 70's.flac" WAVE
TRACK 01 AUDIO
TITLE "The Wall Street Shuffle"
PERFORMER "10CC"
INDEX 01 00:00:00
TRACK 02 AUDIO
TITLE "Donna"
PERFORMER "10CC"
INDEX 00 03:51:20
INDEX 01 03:53:02
TRACK 03 AUDIO
TITLE "Rubber Bullets"
PERFORMER "10CC"
INDEX 00 06:46:37
INDEX 01 06:48:19
TRACK 04 AUDIO
TITLE "Johnny Don't Do It"
PERFORMER "10CC"
INDEX 00 12:03:27
INDEX 01 12:05:09
TRACK 05 AUDIO
TITLE "Sand In My Face"
PERFORMER "10CC"
INDEX 00 15:39:66
INDEX 01 15:41:48
TRACK 06 AUDIO
TITLE "The Dean And I"
PERFORMER "10CC"
INDEX 00 19:18:05
INDEX 01 19:19:62
TRACK 07 AUDIO
TITLE "Headline Hustler"
PERFORMER "10CC"
INDEX 00 22:22:01
INDEX 01 22:23:58
TRACK 08 AUDIO
TITLE "The Hospital Song"
PERFORMER "10CC"
INDEX 00 25:54:26
INDEX 01 25:56:08
TRACK 09 AUDIO
TITLE "Speed Kills"
PERFORMER "10CC"
INDEX 00 28:37:07
INDEX 01 28:38:64
TRACK 10 AUDIO
TITLE "Clockwork Creep"
PERFORMER "10CC"
INDEX 00 32:24:32
INDEX 01 32:26:14
TRACK 11 AUDIO
TITLE "Hotel"
PERFORMER "10CC"
INDEX 00 35:09:09
INDEX 01 35:10:66
TRACK 12 AUDIO
TITLE "Oh! Effendi"
PERFORMER "10CC"
INDEX 00 39:59:11
INDEX 01 40:00:68
TRACK 13 AUDIO
TITLE "Old Wild Men"
PERFORMER "10CC"
INDEX 00 42:49:70
INDEX 01 42:51:52
TRACK 14 AUDIO
TITLE "The Sacro-Iliac"
PERFORMER "10CC"
INDEX 00 46:09:41
INDEX 01 46:11:23
TRACK 15 AUDIO
TITLE "Silly Love"
PERFORMER "10CC"
INDEX 00 48:41:17
INDEX 01 48:43:00
TRACK 16 AUDIO
TITLE "Somewhere In Hollywood"
PERFORMER "10CC"
INDEX 00 52:39:73
INDEX 01 52:41:54
TRACK 17 AUDIO
TITLE "Baron Samedi"
PERFORMER "10CC"
INDEX 00 59:17:49
INDEX 01 59:19:31
TRACK 18 AUDIO
TITLE "The Worst Band In The World"
PERFORMER "10CC"
INDEX 00 63:02:21
INDEX 01 63:04:03
[свернуть]

Лог проверки качества

AUDIOCHECKER v2.0 beta (build 457) - by Dester - [Ссылки могут видеть только зарегистрированные и активированные пользователи.]
[Only registered and activated users can see links.]
~~~~~~~~~~~~~~~~~~~~~~~~~~~~~~~~~~
-=== НЕ РЕДАКТИРУЙТЕ ЭТОТ ФАЙЛ! ===-

Путь: ...\2000 - Best Of The 70's [SI 990292]

1 -=- 10CC - Best Of The 70's.flac -=- CDDA (100%)

33931252
[свернуть]

Спектр частот

[свернуть]

Скачать 10cc - Best Of The 70's

[Ссылки могут видеть только зарегистрированные и активированные пользователи.]
[Only registered and activated users can see links.]

password: sergych
[свернуть]
My rating to this release: 10/10
__________________
TAIFUN.Wings of Soul

sergych вне форума  
Вверх
2 пользователя(ей) сказали cпасибо:
Bumbum (27.07.2014), swint68 (20.02.2016)
 
Похожие темы
Тема Автор Раздел Ответов Последнее сообщение
Сборник 10cc - The Best Of 10cc Live sergych Soft Rock 0 23.11.2013 19:17
Альбом 10cc - 10cc sergych Soft Rock 0 06.10.2012 18:33
Альбом 10cc - Meanwhile PUPOKIN Soft Rock 0 21.03.2009 16:30
Альбом 10cc - Ten Out Of 10 sergych Soft Rock 0 18.03.2009 20:05


Метки
10cc , 2000 , art rock , best of the 70's , rock , soft rock

Опции темы

Ваши права в разделе
Вы не можете создавать новые темы
Вы не можете отвечать в темах
Вы не можете прикреплять вложения
Вы не можете редактировать свои сообщения

Быстрый переход


Текущее время: 03:55. Часовой пояс GMT +3.

©2008 - 2024 Taifun With Song
Powered by vBulletin® Version 3.8.10
Copyright ©2000 - 2024, vBulletin Solutions, Inc. Перевод: zCarot
При поддержке NIC.UA
2.52431 сек. | MySQL: 16