TAIFUN With Song - качественная и редкая музыка
Навигация
Jazz и Blues Гибкая ритмика, импровизационное начало, гармонии и мелодии - все это Jazz. Blues - жизнеутверждающая музыка, рожденная из душевной боли

А знаете ли Вы, что...
Какой музыкант однажды спел о том, что забыл слова этой песни?
«Однажды на концерте во Франции солист исландской группы Sigur Rós Йонси забыл текст песни. Не остановившись, он сымпровизировал под ту же музыку: «Чёрт, я забыл слова. Но это ничего. Потому что я во Франции, где никто не поймёт».»
 
Опции темы

  #1
Старый 05.03.2019, 09:25
sergych
Координатор
Досье
 
Аватар для sergych
Релиз Count Basic - Movin' in the Right Direction


1996 - Count Basic - Movin' in the Right Direction




Исполнитель/Artist: Count Basic
Альбом/Album: Movin' in the Right Direction
Год/Year: 1996
Жанр/Genre: acid jazz, smooth jazz, contemporary jazz
Страна/Country: Италия
Рекорд-лейбл/Record label: Instinct Records
Номер в каталоге/Catalogue #: EX-328-2
Формат/Format: Free Lossless Audio Codec (*.flac)
Качество/Quality: Lossless
Тип рипа/RIP Type: image+.cue
Продолжительность/Length: 00:45:22
Источник/Source: Собственный рип
Размер/Size: 304.2 MB

Сканы в комплекте

Треклист

01. Sweet Luis [0:04:39.35]
02. This Is Your Life [0:03:48.57]
03. Joy and Pain [0:04:11.15]
04. Movin' in the Right Direction [0:04:39.03]
05. So Far Away [0:03:48.05]
06. On the Move [0:03:46.14]
07. Got to Do [0:04:15.26]
08. Love Your Life [0:03:36.70]
09. Speechless [0:04:20.72]
10. What's Up [0:03:46.03]
11. Where Did Our Love Go [0:04:29.50]
[свернуть]

Превью на YouTube

[свернуть]

EAC лог

Exact Audio Copy V1.3 from 2. September 2016

EAC extraction logfile from 22. February 2019, 0:09

Count Basic / Movin' in the Right Direction

Used drive : PIONEER DVD-RW DVR-220L Adapter: 1 ID: 0

Read mode : Secure
Utilize accurate stream : Yes
Defeat audio cache : Yes
Make use of C2 pointers : No

Read offset correction : 6
Overread into Lead-In and Lead-Out : No
Fill up missing offset samples with silence : Yes
Delete leading and trailing silent blocks : No
Null samples used in CRC calculations : Yes
Used interface : Installed external ASPI interface

Used output format : User Defined Encoder
Selected bitrate : 1024 kBit/s
Quality : High
Add ID3 tag : No
Command line compressor : C:\Program Files (x86)\Exact Audio Copy\Flac\flac.exe
Additional command line options : -6 -V -T "ARTIST=%artist%" -T "TITLE=%title%" -T "ALBUM=%albumtitle%" -T "DATE=%year%" -T "TRACKNUMBER=%tracknr%" -T "GENRE=%genre%" -T "COMMENT=%comment%" -T "BAND=%albuminterpret%" -T "ALBUMARTIST=%albuminterpret%" -T "COMPOSER=%composer%" %haslyrics%--tag-from-file=LYRICS="%lyricsfile%"%haslyrics% -T "DISCNUMBER=%cdnumber%" -T "TOTALDISCS=%totalcds%" -T "TOTALTRACKS=%numtracks%" %hascover%--picture="%coverfile%"%hascover% %source% -o %dest%


TOC of the extracted CD

Track | Start | Length | Start sector | End sector
---------------------------------------------------------
1 | 0:00.00 | 4:39.35 | 0 | 20959
2 | 4:39.35 | 3:48.57 | 20960 | 38116
3 | 8:28.17 | 4:11.15 | 38117 | 56956
4 | 12:39.32 | 4:39.03 | 56957 | 77884
5 | 17:18.35 | 3:48.05 | 77885 | 94989
6 | 21:06.40 | 3:46.14 | 94990 | 111953
7 | 24:52.54 | 4:15.26 | 111954 | 131104
8 | 29:08.05 | 3:36.70 | 131105 | 147374
9 | 32:45.00 | 4:20.72 | 147375 | 166946
10 | 37:05.72 | 3:46.03 | 166947 | 183899
11 | 40:52.00 | 4:29.50 | 183900 | 204124


Range status and errors

Selected range

Filename C:\mm\Count Basic\1996 - Movin' in the Right Direction [EX-328-2]\Count Basic - Movin' in the Right Direction.wav

Peak level 98.8 %
Extraction speed 7.0 X
Range quality 100.0 %
Test CRC 47CFA9A5
Copy CRC 47CFA9A5
Copy OK

No errors occurred


AccurateRip summary

Track 1 accurately ripped (confidence 8) [FD38C08E] (AR v2)
Track 2 accurately ripped (confidence 8) [98B4974B] (AR v2)
Track 3 accurately ripped (confidence 8) [413C6B31] (AR v2)
Track 4 accurately ripped (confidence 8) [31D9A40B] (AR v2)
Track 5 accurately ripped (confidence 8) [0F055B26] (AR v2)
Track 6 accurately ripped (confidence 8) [256CBFFF] (AR v2)
Track 7 accurately ripped (confidence 8) [67B2D429] (AR v2)
Track 8 accurately ripped (confidence 8) [F905C7DD] (AR v2)
Track 9 accurately ripped (confidence 8) [F7565FC7] (AR v2)
Track 10 accurately ripped (confidence 8) [7E0B7B50] (AR v2)
Track 11 accurately ripped (confidence 8) [E7A5F4C5] (AR v2)

All tracks accurately ripped

End of status report
[свернуть]

Файл CUE

REM GENRE "Acid Jazz"
REM DATE 1996
REM DISCID 890AA10B
REM COMMENT "ExactAudioCopy v1.3"
PERFORMER "Count Basic"
TITLE "Movin' in the Right Direction"
REM COMPOSER ""
FILE "Count Basic - Movin' in the Right Direction.flac" WAVE
TRACK 01 AUDIO
TITLE "Sweet Luis"
PERFORMER "Count Basic"
REM COMPOSER ""
INDEX 01 00:00:00
TRACK 02 AUDIO
TITLE "This Is Your Life"
PERFORMER "Count Basic"
REM COMPOSER ""
INDEX 00 04:36:32
INDEX 01 04:39:35
TRACK 03 AUDIO
TITLE "Joy and Pain"
PERFORMER "Count Basic"
REM COMPOSER ""
INDEX 00 08:25:47
INDEX 01 08:28:17
TRACK 04 AUDIO
TITLE "Movin' in the Right Direction"
PERFORMER "Count Basic"
REM COMPOSER ""
INDEX 00 12:36:64
INDEX 01 12:39:32
TRACK 05 AUDIO
TITLE "So Far Away"
PERFORMER "Count Basic"
REM COMPOSER ""
INDEX 00 17:14:57
INDEX 01 17:18:35
TRACK 06 AUDIO
TITLE "On the Move"
PERFORMER "Count Basic"
REM COMPOSER ""
INDEX 00 21:02:72
INDEX 01 21:06:40
TRACK 07 AUDIO
TITLE "Got to Do"
PERFORMER "Count Basic"
REM COMPOSER ""
INDEX 00 24:49:50
INDEX 01 24:52:54
TRACK 08 AUDIO
TITLE "Love Your Life"
PERFORMER "Count Basic"
REM COMPOSER ""
INDEX 00 29:03:62
INDEX 01 29:08:05
TRACK 09 AUDIO
TITLE "Speechless"
PERFORMER "Count Basic"
REM COMPOSER ""
INDEX 00 32:40:60
INDEX 01 32:45:00
TRACK 10 AUDIO
TITLE "What's Up"
PERFORMER "Count Basic"
REM COMPOSER ""
INDEX 01 37:05:72
TRACK 11 AUDIO
TITLE "Where Did Our Love Go"
PERFORMER "Count Basic"
REM COMPOSER ""
INDEX 00 40:48:34
INDEX 01 40:52:00
[свернуть]

Лог проверки качества

AUDIOCHECKER v2.0 beta (build 457) - by Dester - [Ссылки могут видеть только зарегистрированные и активированные пользователи.]
[Only registered and activated users can see links.]
~~~~~~~~~~~~~~~~~~~~~~~~~~~~~~~~~~
-=== НЕ РЕДАКТИРУЙТЕ ЭТОТ ФАЙЛ! ===-

Путь: ...\1996 - Movin' in the Right Direction [EX-328-2]

1 -=- Count Basic - Movin' in the Right Direction.flac -=- CDDA (100%)

38933732
[свернуть]

Спектр частот

[свернуть]

Скачать Count Basic - Movin' in the Right Direction

[Ссылки могут видеть только зарегистрированные и активированные пользователи.]
[Only registered and activated users can see links.]

password: sergych
[свернуть]

Контрольная сумма (хеш-сумма) архива

MD5: d6e8954a3982e9658955de6f908fc7ce
[свернуть]
My opinion of release: 10/10
__________________
TAIFUN.Wings of Soul

Вверх
3 пользователя(ей) сказали cпасибо:
johnsilver (08.03.2019), TAIFUN (05.03.2019), Павел1 (16.03.2019)
Похожие темы
Тема Автор Раздел Ответов Последнее сообщение
Альбом Des'ree - I Ain't Movin' sergych Зарубежная Поп-Музыка 0 09.01.2015 11:17
Релиз One Direction - Midnight Memories(Deluxe Edition) PUPOKIN Зарубежная Поп-Музыка 0 19.11.2013 08:03
VA Back to Basic 3(by Timo) PUPOKIN Deep House 0 26.09.2012 08:49
VA Timo - Back to Basic 2 PUPOKIN Deep House 0 24.04.2012 08:53
Альбом Count Basie Orchestra & Duke Ellington Orchestra - First Time! The Count Meets The Du sergych Jazz и Blues 0 03.06.2009 21:29


Метки
1996 , acid jazz , contemporary jazz , count basic , movin' in the right direction , smooth jazz

Опции темы

Ваши права в разделе
Вы не можете создавать новые темы
Вы не можете отвечать в темах
Вы не можете прикреплять вложения
Вы не можете редактировать свои сообщения

Быстрый переход



Текущее время: 02:44. Часовой пояс GMT +3.
Powered by vBulletin® Version 3.8.10
Copyright ©2000 - 2019, vBulletin Solutions, Inc. Перевод: zCarot
© 2008 - 2019 Taifun With Song
Яндекс.Метрика