TAIFUN With Song - качественная и редкая музыка
Навигация
Blues Rock К концу сороковых годов прошлого столетия в блюзе окончательно обосновалась электрогитара. Трудно сказать, что подтолкнуло многих блюзменов перейти с привычной акустической гитары на электрическую, но блюз с тех пор очень сильно изменился.

А знаете ли Вы, что...
Почему американская полиция однажды решила, что одну из радиостанций захватили террористы Саддама Хусейна?
«В 1991 году радиостанция KLSK FM в американском городе Альбукерке решила сменить формат на классический рок, в связи с чем 24 часа подряд в эфире звучала песня Led Zeppelin «Stairway to Heaven». Дважды на станцию по просьбе взволнованных слушателей приезжала полиция: один человек заявил, что ди-джей, видимо, получил инфаркт, а другой — что радио захватили террористы, ведь фанатом Led Zeppelin является Саддам Хусейн.»
 
Опции темы

  #1
Старый 07.01.2017, 18:14
sergych
Координатор
Досье
 
Аватар для sergych
Релиз Billy Gibbons and BFG's - Perfectamundo


2015 - Billy Gibbons and BFG's - Perfectamundo




Исполнитель/Artist: Billy Gibbons and BFG's
Альбом/Album: Perfectamundo
Год/Year: 2015
Жанр/Genre: Blues rock, Afro-Cuban
Страна/Country: Нидерланды
Рекорд-лейбл/Record label: Concord / Uninversal Music
Номер в каталоге/Catalogue #: 0888072378865
Формат/Format: Free Lossless Audio Codec (*.flac)
Качество/Quality: Lossless
Тип рипа/RIP Type: image+.cue
Продолжительность/Length: 00:39:19
Источник/Source: Собственный рип
Размер/Size: 336.1 MB

Сканы в комплекте

Треклист

01. Got Love If You Want It [0:04:17.47]
02. Treat Her Right [0:02:23.71]
03. You're What's Happenin', Baby [0:06:07.07]
04. Sal Y Pimiento [0:03:13.26]
05. Pickin' Up Chicks On Dowling Street [0:04:11.63]
06. Hombre Sin Nombre [0:03:49.64]
07. Quiero Mas Dinero [0:03:26.47]
08. Baby Please Don't Go [0:02:31.25]
09. Piedras Negras [0:03:09.03]
10. Perfectamundo [0:02:44.28]
11. Q-Vo [0:03:23.55]
[свернуть]

youtube.com

[свернуть]

EAC лог

Exact Audio Copy V1.2 from 12. August 2016

EAC extraction logfile from 7. January 2017, 12:07

Billy Gibbons and BFG's / Perfectamundo

Used drive : PLEXTOR DVDR PX-716A Adapter: 1 ID: 0

Read mode : Secure
Utilize accurate stream : Yes
Defeat audio cache : Yes
Make use of C2 pointers : No

Read offset correction : 30
Overread into Lead-In and Lead-Out : No
Fill up missing offset samples with silence : Yes
Delete leading and trailing silent blocks : No
Null samples used in CRC calculations : Yes
Used interface : Native Win32 interface for Win NT & 2000

Used output format : User Defined Encoder
Selected bitrate : 1024 kBit/s
Quality : High
Add ID3 tag : No
Command line compressor : C:\Program Files (x86)\Exact Audio Copy\FLAC\FLAC.EXE
Additional command line options : -6 -V -T "ARTIST=%artist%" -T "TITLE=%title%" -T "ALBUM=%albumtitle%" -T "DATE=%year%" -T "TRACKNUMBER=%tracknr%" -T "GENRE=%genre%" -T "COMMENT=%comment%" -T "BAND=%albuminterpret%" -T "ALBUMARTIST=%albuminterpret%" -T "COMPOSER=%composer%" %haslyrics%--tag-from-file=LYRICS="%lyricsfile%"%haslyrics% -T "DISCNUMBER=%cdnumber%" -T "TOTALDISCS=%totalcds%" -T "TOTALTRACKS=%numtracks%" %hascover%--picture="%coverfile%"%hascover% %source% -o %dest%


TOC of the extracted CD

Track | Start | Length | Start sector | End sector
---------------------------------------------------------
1 | 0:00.00 | 4:17.47 | 0 | 19321
2 | 4:17.47 | 2:23.71 | 19322 | 30117
3 | 6:41.43 | 6:07.07 | 30118 | 57649
4 | 12:48.50 | 3:13.26 | 57650 | 72150
5 | 16:02.01 | 4:11.63 | 72151 | 91038
6 | 20:13.64 | 3:49.64 | 91039 | 108277
7 | 24:03.53 | 3:26.47 | 108278 | 123774
8 | 27:30.25 | 2:31.25 | 123775 | 135124
9 | 30:01.50 | 3:09.03 | 135125 | 149302
10 | 33:10.53 | 2:44.28 | 149303 | 161630
11 | 35:55.06 | 3:23.55 | 161631 | 176910


Range status and errors

Selected range

Filename C:\mm\ZZ Top\Billy Gibbons And BFG's\2015 - Perfectamundo [0888072378865]\Billy Gibbons and BFG's - Perfectamundo.wav

Peak level 99.5 %
Extraction speed 10.3 X
Range quality 100.0 %
Test CRC 54E73A49
Copy CRC 54E73A49
Copy OK

No errors occurred


AccurateRip summary

Track 1 accurately ripped (confidence 54) [27DD5183] (AR v2)
Track 2 accurately ripped (confidence 54) [F3500B15] (AR v2)
Track 3 accurately ripped (confidence 53) [E3702169] (AR v2)
Track 4 accurately ripped (confidence 53) [50544CE1] (AR v2)
Track 5 accurately ripped (confidence 53) [B061C393] (AR v2)
Track 6 accurately ripped (confidence 53) [B40EB366] (AR v2)
Track 7 accurately ripped (confidence 53) [AAE6A85D] (AR v2)
Track 8 accurately ripped (confidence 53) [DCD9A5D2] (AR v2)
Track 9 accurately ripped (confidence 54) [963B0F80] (AR v2)
Track 10 accurately ripped (confidence 53) [357C9F52] (AR v2)
Track 11 accurately ripped (confidence 53) [59A49F4A] (AR v2)

All tracks accurately ripped

End of status report

---- CUETools DB Plugin V2.1.6

[CTDB TOCID: R2EVBI7pH2xdDWErDKhVFHXPR4c-] found
Submit result: R2EVBI7pH2xdDWErDKhVFHXPR4c- has been confirmed
Track | CTDB Status
1 | (223/223) Accurately ripped
2 | (223/223) Accurately ripped
3 | (222/223) Accurately ripped
4 | (223/223) Accurately ripped
5 | (222/223) Accurately ripped
6 | (223/223) Accurately ripped
7 | (222/223) Accurately ripped
8 | (223/223) Accurately ripped
9 | (223/223) Accurately ripped
10 | (222/223) Accurately ripped
11 | (222/223) Accurately ripped
[свернуть]

Файл CUE

REM GENRE Blues
REM DATE 2015
REM DISCID 8F09360B
REM COMMENT "ExactAudioCopy v1.2"
PERFORMER "Billy Gibbons and BFG's"
TITLE "Perfectamundo"
REM COMPOSER ""
FILE "Billy Gibbons and BFG's - Perfectamundo.flac" WAVE
TRACK 01 AUDIO
TITLE "Got Love If You Want It"
PERFORMER "Billy Gibbons and BFG's"
REM COMPOSER ""
FLAGS DCP
INDEX 01 00:00:00
TRACK 02 AUDIO
TITLE "Treat Her Right"
PERFORMER "Billy Gibbons and BFG's"
REM COMPOSER ""
FLAGS DCP
INDEX 00 04:15:47
INDEX 01 04:17:47
TRACK 03 AUDIO
TITLE "You're What's Happenin', Baby"
PERFORMER "Billy Gibbons and BFG's"
REM COMPOSER ""
FLAGS DCP
INDEX 00 06:39:43
INDEX 01 06:41:43
TRACK 04 AUDIO
TITLE "Sal Y Pimiento"
PERFORMER "Billy Gibbons and BFG's"
REM COMPOSER ""
FLAGS DCP
INDEX 00 12:46:50
INDEX 01 12:48:50
TRACK 05 AUDIO
TITLE "Pickin' Up Chicks On Dowling Street"
PERFORMER "Billy Gibbons and BFG's"
REM COMPOSER ""
FLAGS DCP
INDEX 00 16:00:01
INDEX 01 16:02:01
TRACK 06 AUDIO
TITLE "Hombre Sin Nombre"
PERFORMER "Billy Gibbons and BFG's"
REM COMPOSER ""
FLAGS DCP
INDEX 00 20:10:64
INDEX 01 20:13:64
TRACK 07 AUDIO
TITLE "Quiero Mas Dinero"
PERFORMER "Billy Gibbons and BFG's"
REM COMPOSER ""
FLAGS DCP
INDEX 00 24:01:53
INDEX 01 24:03:53
TRACK 08 AUDIO
TITLE "Baby Please Don't Go"
PERFORMER "Billy Gibbons and BFG's"
REM COMPOSER ""
FLAGS DCP
INDEX 00 27:28:25
INDEX 01 27:30:25
TRACK 09 AUDIO
TITLE "Piedras Negras"
PERFORMER "Billy Gibbons and BFG's"
REM COMPOSER ""
FLAGS DCP
INDEX 00 29:59:50
INDEX 01 30:01:50
TRACK 10 AUDIO
TITLE "Perfectamundo"
PERFORMER "Billy Gibbons and BFG's"
REM COMPOSER ""
FLAGS DCP
INDEX 00 33:07:53
INDEX 01 33:10:53
TRACK 11 AUDIO
TITLE "Q-Vo"
PERFORMER "Billy Gibbons and BFG's"
REM COMPOSER ""
FLAGS DCP
INDEX 00 35:52:06
INDEX 01 35:55:06
[свернуть]

Лог проверки качества

AUDIOCHECKER v2.0 beta (build 457) - by Dester - [Ссылки могут видеть только зарегистрированные и активированные пользователи.]
[Only registered and activated users can see links.]
~~~~~~~~~~~~~~~~~~~~~~~~~~~~~~~~~~
-=== НЕ РЕДАКТИРУЙТЕ ЭТОТ ФАЙЛ! ===-

Путь: ...\2015 - Perfectamundo [0888072378865]

1 -=- Billy Gibbons and BFG's - Perfectamundo.flac -=- CDDA (100%)

202724
[свернуть]

Спектр частот

[свернуть]

Скачать Billy Gibbons and BFG's - Perfectamundo

[Ссылки могут видеть только зарегистрированные и активированные пользователи.]
[Only registered and activated users can see links.]

password: sergych
[свернуть]

Контрольная сумма (хеш-сумма) архива

MD5: ddcb8016260dbd30e21f8a62a26e2014
[свернуть]
My opinion of release: 8/10
__________________
TAIFUN.Wings of Soul

Вверх
2 пользователя(ей) сказали cпасибо:
LENON (07.01.2017), swint68 (07.01.2017)
  #2
Старый 07.01.2017, 19:23
swint68
Меломан
Досье
 
Аватар для swint68
По умолчанию Re: Billy Gibbons and BFG's - Perfectamundo

С Рождеством!
Спасибо большое!

Вверх
Пользователь сказал cпасибо:
sergych (08.01.2017)
  #3
Старый 07.01.2017, 23:41
LENON
Пользователь
Досье
 
Аватар для LENON
По умолчанию Re: Billy Gibbons and BFG's - Perfectamundo

Спасибо

Вверх
Пользователь сказал cпасибо:
sergych (08.01.2017)
Похожие темы
Тема Автор Раздел Ответов Последнее сообщение
Релиз Billy Neal - I Believe PUPOKIN Jazz и Blues 0 30.11.2013 08:38
Альбом Billy C. Farlow - You Better Run PUPOKIN Blues Rock 0 03.01.2012 09:40
Альбом Billy McLaughlin - Acoustic Original (The Best Of Billy McLaughlin) fly123 New age 0 28.09.2011 16:46
Релиз Billy Talent - Billy Talent III PUPOKIN Punk Rock 0 29.05.2009 09:04
Corey Gibbons DarkDan House 0 27.04.2008 13:55


Метки
2015 , afro-cuban , bfg's , billy gibbons , blues rock , perfectamundo

Опции темы

Ваши права в разделе
Вы не можете создавать новые темы
Вы не можете отвечать в темах
Вы не можете прикреплять вложения
Вы не можете редактировать свои сообщения

Быстрый переход




Текущее время: 06:54. Часовой пояс GMT +3.
Powered by vBulletin® Version 3.8.10
Copyright ©2000 - 2019, vBulletin Solutions, Inc. Перевод: zCarot
© 2008 - 2019 Taifun With Song
Яндекс.Метрика