TAIFUN With Song - качественная и редкая музыка
Навигация
Power Metal Сложилось направление во второй половине 80-х годов XX века в Западной Европе. Отличается более высокой скоростью исполнения, чем «классический» хэви-метал и большей мелодичностью, чем спид-метал.

А знаете ли Вы, что...
Какой сюрприз преподнесла группа Muse, когда её вынудили играть под фонограмму?
«Однажды группу Muse пригласили выступать на итальянском телевидении, но вынудили делать это под фонограмму. Музыканты не стали бойкотировать выступление. но поменялись ролями. Солист и гитарист Мэттью Беллами сел за ударные, ударник Доминик Ховард встал с бас-гитарой за микрофон, а бас-гитарист Крис Уолстенхолм взял гитару и встал за клавишные. А после исполнения песни ударник ещё и ответил на вопросы в качестве фронтмена.»
 
Опции темы

  #1
Старый 12.01.2020, 11:10
swint68
Релизёр
Досье
 
Аватар для swint68
По умолчанию Armored Dawn - Barbarians In Black


2018 - Armored Dawn - Barbarians In Black




Исполнитель/Artist: Armored Dawn
Альбом/Album: Barbarians In Black
Год/Year: 2018
Жанр/Genre: Power Metal
Страна/Country: Германия
Рекорд-лейбл/Record label: AFM Records
Номер в каталоге/Catalogue #: AFM 676-2
Формат/Format: Free Lossless Audio Codec (*.flac)
Качество/Quality: Lossless
Тип рипа/RIP Type: image+.cue
Продолжительность/Length: 00:39:36
Источник/Source: Ilijan
Размер/Size: 372 MB

Сканы в комплекте

Треклист

01. Beware Of The Dragon
02. Bloodstone
03. Men Of Odin
04. Chance To Live Again
05. Unbreakable
06. Eyes Behind The Crow
07. Sail Away
08. Gods Of Metal
09. Survivor
10. Barbarians In Black
[свернуть]

Превью на YouTube

[свернуть]

EAC лог

Exact Audio Copy V1.3 from 2. September 2016

EAC extraction logfile from 2. May 2018, 21:42

Armored Dawn / Barbarians In Black

Used drive : ATAPI iHAS122 W Adapter: 2 ID: 0

Read mode : Secure
Utilize accurate stream : Yes
Defeat audio cache : Yes
Make use of C2 pointers : No

Read offset correction : 48
Overread into Lead-In and Lead-Out : No
Fill up missing offset samples with silence : Yes
Delete leading and trailing silent blocks : No
Null samples used in CRC calculations : Yes
Used interface : Installed external ASPI interface

Used output format : User Defined Encoder
Selected bitrate : 1024 kBit/s
Quality : High
Add ID3 tag : No
Command line compressor : C:\Program Files\FLAC\flac.exe
Additional command line options : -V -8 -T "Date=%year%" -T "Genre=%genre%" -T"COMMENT=Ripped by Ilijan [MeTaLMaDNeSS.TeaM]" -8 -V %source%


TOC of the extracted CD

Track | Start | Length | Start sector | End sector
---------------------------------------------------------
1 | 0:00.00 | 4:39.10 | 0 | 20934
2 | 4:39.10 | 3:47.19 | 20935 | 37978
3 | 8:26.29 | 4:08.71 | 37979 | 56649
4 | 12:35.25 | 4:00.72 | 56650 | 74721
5 | 16:36.22 | 4:04.70 | 74722 | 93091
6 | 20:41.17 | 3:47.17 | 93092 | 110133
7 | 24:28.34 | 3:59.21 | 110134 | 128079
8 | 28:27.55 | 3:29.66 | 128080 | 143820
9 | 31:57.46 | 3:45.09 | 143821 | 160704
10 | 35:42.55 | 3:53.27 | 160705 | 178206


Range status and errors

Selected range

Filename D:\Vknish+Devastator+ungern666+deminbek=Swolo4 (Upload On Rutracker+Me-4u, DIE!!!)\Armored Dawn - Barbarians In Black.wav

Peak level 98.8 %
Extraction speed 3.6 X
Range quality 100.0 %
Test CRC EA30A1EB
Copy CRC EA30A1EB
Copy OK

No errors occurred


AccurateRip summary

Track 1 not present in database
Track 2 not present in database
Track 3 not present in database
Track 4 not present in database
Track 5 not present in database
Track 6 not present in database
Track 7 not present in database
Track 8 not present in database
Track 9 not present in database
Track 10 not present in database

None of the tracks are present in the AccurateRip database

End of status report

---- CUETools DB Plugin V2.1.6

[CTDB TOCID: eeeA_fXnA10BjkbmmfuIfTW4xt4-] disk not present in database
Submit result: eeeA_fXnA10BjkbmmfuIfTW4xt4- has been uploaded


==== Log checksum DFE99E846AD79D367B522E209D7A497DE6125A96077931C6A3FF0EA113EB1C25 ====
[свернуть]

Файл CUE

REM GENRE "Power Metal"
REM DATE 2018
REM DISCID 8D09480A
REM COMMENT "ExactAudioCopy v1.3"
PERFORMER "Armored Dawn"
TITLE "Barbarians In Black"
FILE "Armored Dawn - Barbarians In Black.flac" WAVE
TRACK 01 AUDIO
TITLE "Beware Of The Dragon"
PERFORMER "Armored Dawn"
INDEX 01 00:00:00
TRACK 02 AUDIO
TITLE "Bloodstone"
PERFORMER "Armored Dawn"
INDEX 01 04:39:10
TRACK 03 AUDIO
TITLE "Men Of Odin"
PERFORMER "Armored Dawn"
INDEX 01 08:26:29
TRACK 04 AUDIO
TITLE "Chance To Live Again"
PERFORMER "Armored Dawn"
INDEX 01 12:35:25
TRACK 05 AUDIO
TITLE "Unbreakable"
PERFORMER "Armored Dawn"
INDEX 01 16:36:22
TRACK 06 AUDIO
TITLE "Eyes Behind The Crow"
PERFORMER "Armored Dawn"
INDEX 01 20:41:17
TRACK 07 AUDIO
TITLE "Sail Away"
PERFORMER "Armored Dawn"
INDEX 01 24:28:34
TRACK 08 AUDIO
TITLE "Gods Of Metal"
PERFORMER "Armored Dawn"
INDEX 01 28:27:55
TRACK 09 AUDIO
TITLE "Survivor"
PERFORMER "Armored Dawn"
INDEX 01 31:57:46
TRACK 10 AUDIO
TITLE "Barbarians In Black"
PERFORMER "Armored Dawn"
INDEX 01 35:42:55
[свернуть]

Лог проверки качества

-----------------------

DON'T MODIFY THIS FILE

-----------------------

PERFORMER: auCDtect Task Manager, ver. 1.6.0 RC1 build 1.6.0.1
Copyright (c) 2008-2010 y-soft. All rights reserved
[Ссылки могут видеть только зарегистрированные и активированные пользователи.]
[Only registered and activated users can see links.]

ANALYZER: auCDtect: CD records authenticity detector, version 0.8.2
Copyright (c) 2004 Oleg Berngardt. All rights reserved.
Copyright (c) 2004 Alexander Djourik. All rights reserved.


FILE: Armored Dawn - Barbarians In Black.flac
Size: 311407708 Hash: 16E5D4CD2FE29E4CF078B7A9BB98714E Accuracy: -m0
Conclusion: MPEG 95%
Signature: 7B363AA47EEE9AF27BB2CA38626DF665A0B573A7
[свернуть]

Скачать Armored Dawn - Barbarians In Black

[Ссылки могут видеть только зарегистрированные и активированные пользователи.]
[Only registered and activated users can see links.]
[свернуть]

Вверх
2 пользователя(ей) сказали cпасибо:
sergych (12.01.2020), TAIFUN (13.01.2020)
Похожие темы
Тема Автор Раздел Ответов Последнее сообщение
Релиз Armored Dawn - Power Of Warrior PUPOKIN Heavy Metal 0 29.07.2016 13:59
Релиз Amberian Dawn - Circus Black PUPOKIN Symphonic Metal 0 01.03.2012 09:13
Релиз Armored Saint – La Raza PUPOKIN Heavy Metal 0 14.06.2010 11:08
Альбом Armored Saint - Revelation PUPOKIN Heavy Metal 0 09.06.2010 10:29
Саундтрек John Murphy – Armored PUPOKIN Саундтреки 0 18.04.2010 10:26


Метки
2018 , armored dawn , barbarians in black , power metal

Опции темы

Ваши права в разделе
Вы не можете создавать новые темы
Вы не можете отвечать в темах
Вы не можете прикреплять вложения
Вы не можете редактировать свои сообщения

Быстрый переход




Текущее время: 07:25. Часовой пояс GMT +3.
Powered by vBulletin® Version 3.8.10
Copyright ©2000 - 2020, vBulletin Solutions, Inc. Перевод: zCarot
© 2008 - 2020 Taifun With Song
Яндекс.Метрика