TAIFUN With Song - качественная и редкая музыка
Навигация
Death Metal Дэт-метал обычно характеризуется крайней степенью жёсткости, интенсивности и скорости в музыке. Дэт-метал известен своей неровной сменой музыкального темпа и размера, чрезвычайно быстрой и сложной гитарной игрой и двойными басовыми барабанными партиями. Типично использование бласт-бита для добавления звуку мощи. Большинство групп используют заниженный и искажённый гитарный звук.

А знаете ли Вы, что...
Какой император наказывал офицеров прослушиванием оперы?
«Император Николай I не любил музыку и в качестве наказания для офицеров предоставлял им выбор между гауптвахтой и прослушиванием опер Глинки.»
 
Опции темы

  #1
Старый 11.01.2020, 09:32
swint68
Релизёр
Досье
 
Аватар для swint68
По умолчанию Veiled In Scarlet - Atonement


2018 - Veiled In Scarlet - Atonement




Исполнитель/Artist: Veiled In Scarlet
Альбом/Album: Atonement
Год/Year: 2018
Жанр/Genre: Melodic Death Metal
Страна/Country: Япония
Рекорд-лейбл/Record label: Walkure Records
Номер в каталоге/Catalogue #: WLKR-037
Формат/Format: Free Lossless Audio Codec (*.flac)
Качество/Quality: Lossless
Тип рипа/RIP Type: image+.cue
Продолжительность/Length: 00:36:48
Источник/Source: Ilijan
Размер/Size: 326 MB

Сканы в комплекте

Треклист

01. Closer To Dawn
02. The Throne
03. Prisoner's Sorrow
04. Atonement
05. Incarnation Of Fear
06. In The Void
07. Insurrection
08. Dark Prayer
09. Blind Crow
10. Roar The Winter
[свернуть]

Превью на YouTube

[свернуть]

EAC лог

Exact Audio Copy V1.3 from 2. September 2016

EAC extraction logfile from 1. December 2018, 11:49

Veiled In Scarlet / Atonement

Used drive : ATAPI iHAS122 W Adapter: 2 ID: 0

Read mode : Secure
Utilize accurate stream : Yes
Defeat audio cache : Yes
Make use of C2 pointers : No

Read offset correction : 48
Overread into Lead-In and Lead-Out : No
Fill up missing offset samples with silence : Yes
Delete leading and trailing silent blocks : No
Null samples used in CRC calculations : Yes
Used interface : Installed external ASPI interface

Used output format : User Defined Encoder
Selected bitrate : 1024 kBit/s
Quality : High
Add ID3 tag : No
Command line compressor : C:\Program Files\FLAC\flac.exe
Additional command line options : -V -8 -T "Date=%year%" -T "Genre=%genre%" -T"COMMENT=Ripped by Ilijan [MeTaLMaDNeSS.TeaM]" -8 -V %source%


TOC of the extracted CD

Track | Start | Length | Start sector | End sector
---------------------------------------------------------
1 | 0:00.00 | 0:50.56 | 0 | 3805
2 | 0:50.56 | 4:12.05 | 3806 | 22710
3 | 5:02.61 | 4:03.23 | 22711 | 40958
4 | 9:06.09 | 3:37.07 | 40959 | 57240
5 | 12:43.16 | 3:52.32 | 57241 | 74672
6 | 16:35.48 | 4:37.44 | 74673 | 95491
7 | 21:13.17 | 3:35.02 | 95492 | 111618
8 | 24:48.19 | 3:15.44 | 111619 | 126287
9 | 28:03.63 | 4:09.64 | 126288 | 145026
10 | 32:13.52 | 4:34.27 | 145027 | 165603


Range status and errors

Selected range

Filename D:\Vknish+g.y.m.=3.14дарасы (Upload On Rutracker, DIE!!!)\Veiled In Scarlet - Atonement.wav

Peak level 100.0 %
Extraction speed 3.5 X
Range quality 100.0 %
Test CRC 863A3658
Copy CRC 863A3658
Copy OK

No errors occurred


AccurateRip summary

Track 1 not present in database
Track 2 not present in database
Track 3 not present in database
Track 4 not present in database
Track 5 not present in database
Track 6 not present in database
Track 7 not present in database
Track 8 not present in database
Track 9 not present in database
Track 10 not present in database

None of the tracks are present in the AccurateRip database

End of status report

---- CUETools DB Plugin V2.1.6

[CTDB TOCID: 4mthvpwmNw3uWTQ2316XKoWp8_0-] found
Submit result: 4mthvpwmNw3uWTQ2316XKoWp8_0- has been confirmed
Track | CTDB Status
1 | (5/5) Accurately ripped
2 | (5/5) Accurately ripped
3 | (5/5) Accurately ripped
4 | (5/5) Accurately ripped
5 | (5/5) Accurately ripped
6 | (5/5) Accurately ripped
7 | (5/5) Accurately ripped
8 | (5/5) Accurately ripped
9 | (5/5) Accurately ripped
10 | (5/5) Accurately ripped


==== Log checksum C1BF90DE6951A4C200EF96F90E2CAA449628E1A98BAFC91A0AEE9A885A7234A5 ====
[свернуть]

Файл CUE

REM GENRE "Melodic Death Metal"
REM DATE 2018
REM DISCID 8F08A00A
REM COMMENT "ExactAudioCopy v1.3"
PERFORMER "Veiled In Scarlet"
TITLE "Atonement"
FILE "Veiled In Scarlet - Atonement.flac" WAVE
TRACK 01 AUDIO
TITLE "Closer To Dawn"
PERFORMER "Veiled In Scarlet"
INDEX 01 00:00:00
TRACK 02 AUDIO
TITLE "The Throne"
PERFORMER "Veiled In Scarlet"
INDEX 01 00:50:56
TRACK 03 AUDIO
TITLE "Prisoner's Sorrow"
PERFORMER "Veiled In Scarlet"
INDEX 01 05:02:61
TRACK 04 AUDIO
TITLE "Atonement"
PERFORMER "Veiled In Scarlet"
INDEX 01 09:06:09
TRACK 05 AUDIO
TITLE "Incarnation Of Fear"
PERFORMER "Veiled In Scarlet"
INDEX 01 12:43:16
TRACK 06 AUDIO
TITLE "In The Void"
PERFORMER "Veiled In Scarlet"
INDEX 00 16:34:70
INDEX 01 16:35:48
TRACK 07 AUDIO
TITLE "Insurrection"
PERFORMER "Veiled In Scarlet"
INDEX 00 21:12:38
INDEX 01 21:13:17
TRACK 08 AUDIO
TITLE "Dark Prayer"
PERFORMER "Veiled In Scarlet"
INDEX 00 24:47:40
INDEX 01 24:48:19
TRACK 09 AUDIO
TITLE "Blind Crow"
PERFORMER "Veiled In Scarlet"
INDEX 00 28:02:59
INDEX 01 28:03:63
TRACK 10 AUDIO
TITLE "Roar The Winter"
PERFORMER "Veiled In Scarlet"
INDEX 00 32:12:30
INDEX 01 32:13:52
[свернуть]

Лог проверки качества

-----------------------

DON'T MODIFY THIS FILE

-----------------------

PERFORMER: auCDtect Task Manager, ver. 1.6.0 RC1 build 1.6.0.1
Copyright (c) 2008-2010 y-soft. All rights reserved
[Ссылки могут видеть только зарегистрированные и активированные пользователи.]
[Only registered and activated users can see links.]

ANALYZER: auCDtect: CD records authenticity detector, version 0.8.2
Copyright (c) 2004 Oleg Berngardt. All rights reserved.
Copyright (c) 2004 Alexander Djourik. All rights reserved.


FILE: Veiled In Scarlet - Atonement.flac
Size: 298292761 Hash: 80090CEEA004103800EF0338794231A2 Accuracy: -m0
Conclusion: CDDA 100%
Signature: F9E46B742521397DCE2E71C7AD42C45070266E91
[свернуть]

Скачать Veiled In Scarlet - Atonement

[Ссылки могут видеть только зарегистрированные и активированные пользователи.]
[Only registered and activated users can see links.]
[свернуть]

Вверх
Пользователь сказал cпасибо:
sergych (11.01.2020)
Похожие темы
Тема Автор Раздел Ответов Последнее сообщение
Релиз Immolation - Atonement PUPOKIN Death Metal 0 15.02.2017 13:44
Релиз Scarlet Haze – One Bad Bitch PUPOKIN Hard Rock 0 13.03.2012 09:58
Релиз Scarlet Carson - Burn It All PUPOKIN Hard Rock 0 24.01.2011 11:01


Метки
2018 , atonement , melodic death metal , veiled in scarlet

Опции темы

Ваши права в разделе
Вы не можете создавать новые темы
Вы не можете отвечать в темах
Вы не можете прикреплять вложения
Вы не можете редактировать свои сообщения

Быстрый переход




Текущее время: 09:08. Часовой пояс GMT +3.
Powered by vBulletin® Version 3.8.10
Copyright ©2000 - 2020, vBulletin Solutions, Inc. Перевод: zCarot
© 2008 - 2020 Taifun With Song
Яндекс.Метрика