TAIFUN With Song - качественная и редкая музыка
Навигация
А знаете ли Вы, что...
Что поётся в самой короткой в мире песне?
«Песня английской группы Napalm Death "You Suffer" длится 1,316 секунды и считается самой короткой в мире. В ней поётся только одна фраза: "You suffer — but why?" («Вы страдаете — но зачем?»), и её очень трудно разобрать. Сначала песня была издана на альбоме Scum, а в 1989 году как сингл на отдельном диске.»
 
Опции темы

  #1
Старый 10.10.2013, 20:38
sergych
Координатор
Досье
 
Аватар для sergych
Релиз Mina Mazzini & Adriano Celentano - Mina & Celentano


1998 - Mina Mazzini & Adriano Celentano - Mina & Celentano




Исполнитель/Artist: Mina Mazzini & Adriano Celentano
Альбом/Album: Mina & Celentano
Год/Year: 1998
Жанр/Genre: Italo pop, Pop
Страна/Country: Италия
Рекорд-лейбл/Record label: Clan Celentano S.l.r. / RTI Music
Номер в каталоге/Catalogue #: RTI 90012
Формат/Format: Monkey's Audio (*.ape)
Качество/Quality: VBR 128-192 kbps
Тип рипа/RIP Type: image+.cue
Продолжительность/Length: 00:45:16
Источник/Source: Из интернета
Размер/Size: 294.9 MB

Сканы в комплекте

Треклист

01 - Acqua e sale
02 - Brivido felino
03 - Io non volevo
04 - Specchi riflessi
05 - Dolce fuoco dell'amore
06 - Che t'aggia di
07 - Io ho te
08 - Dolly
09 - Sempre, sempre, sempre
10 - Messaggio d'amore
[свернуть]

youtube.com

[свернуть]

Исполнители/Performers

Mina Mazzini & Adriano Celentano
[свернуть]

EAC лог

Exact Audio Copy V0.99 prebeta 3 from 28. July 2007

EAC extraction logfile from 11. March 2008, 13:03

Mina - Adriano Celentano / Mina & Celentano

Used drive : TSSTcorpCDDVDW SH-S203B Adapter: 6 ID: 0

Read mode : Secure
Utilize accurate stream : Yes
Defeat audio cache : Yes
Make use of C2 pointers : No

Read offset correction : 6
Overread into Lead-In and Lead-Out : No
Fill up missing offset samples with silence : Yes
Delete leading and trailing silent blocks : No
Null samples used in CRC calculations : Yes
Used interface : Installed external ASPI interface

Used output format : Monkey's Audio Lossless Encoder
Selected bitrate : Fast Lossless Compression
Quality : High
Add ID3 tag : No
Command line compressor : C:\Program Files\Monkey's Audio\MAC.exe
Additional command line options : -6 -V -T "ARTIST=%a" -T "TITLE=%t" -T "ALBUM=%g" -T "DATE=%y" -T "TRACKNUMBER=%n" -T "GENRE=%m" -T "COMMENT=%e" %s -o %d


TOC of the extracted CD

Track | Start | Length | Start sector | End sector
---------------------------------------------------------
1 | 0:00.00 | 4:42.27 | 0 | 21176
2 | 4:42.27 | 3:44.33 | 21177 | 38009
3 | 8:26.60 | 4:08.37 | 38010 | 56646
4 | 12:35.22 | 4:59.40 | 56647 | 79111
5 | 17:34.62 | 4:39.05 | 79112 | 100041
6 | 22:13.67 | 5:09.43 | 100042 | 123259
7 | 27:23.35 | 4:54.12 | 123260 | 145321
8 | 32:17.47 | 5:35.00 | 145322 | 170446
9 | 37:52.47 | 4:46.73 | 170447 | 191969
10 | 42:39.45 | 2:36.45 | 191970 | 203714


Range status and errors

Selected range

Filename C:\uTorrent\CD\Mina - Adriano Celentano - Mina & Celentano\Mina - Adriano Celentano - Mina & Celentano.wav

Peak level 97.1 %
Range quality 100.0 %
Copy CRC 06259957
Copy OK

No errors occurred


AccurateRip summary

Track 1 not present in database
Track 2 not present in database
Track 3 not present in database
Track 4 not present in database
Track 5 not present in database
Track 6 not present in database
Track 7 not present in database
Track 8 not present in database
Track 9 not present in database
Track 10 not present in database

None of the tracks are present in the AccurateRip database

End of status report
[свернуть]

Файл CUE

REM GENRE Italiana
REM DATE 1998
REM DISCID 8B0A9C0A
REM COMMENT "ExactAudioCopy v0.99pb3"
PERFORMER "Mina - Adriano Celentano"
TITLE "Mina & Celentano"
FILE "Mina Mazzini & Adriano Celentano.ape" WAVE
TRACK 01 AUDIO
TITLE "Acqua E Sale"
PERFORMER "Mina - Adriano Celentano"
INDEX 01 00:00:00
TRACK 02 AUDIO
TITLE "Brivido Felino"
PERFORMER "Mina - Adriano Celentano"
INDEX 01 04:42:27
TRACK 03 AUDIO
TITLE "Io Non Volevo"
PERFORMER "Mina - Adriano Celentano"
INDEX 01 08:26:60
TRACK 04 AUDIO
TITLE "Specchi Riflessi"
PERFORMER "Mina - Adriano Celentano"
INDEX 01 12:35:22
TRACK 05 AUDIO
TITLE "Dolce Fuoco Dell'amore"
PERFORMER "Mina - Adriano Celentano"
INDEX 01 17:34:62
TRACK 06 AUDIO
TITLE "Che T'aggia Di'"
PERFORMER "Mina - Adriano Celentano"
INDEX 01 22:13:67
TRACK 07 AUDIO
TITLE "Io Ho Te"
PERFORMER "Mina - Adriano Celentano"
INDEX 01 27:23:35
TRACK 08 AUDIO
TITLE "Dolly"
PERFORMER "Mina - Adriano Celentano"
INDEX 01 32:17:47
TRACK 09 AUDIO
TITLE "Sempre, Sempre, Sempre"
PERFORMER "Mina - Adriano Celentano"
INDEX 01 37:52:47
TRACK 10 AUDIO
TITLE "Messaggio D'amore"
PERFORMER "Mina - Adriano Celentano"
INDEX 01 42:39:45
[свернуть]

Лог проверки качества

AUDIOCHECKER v2.0 beta (build 457) - by Dester - [Ссылки могут видеть только зарегистрированные и активированные пользователи.]
[Only registered and activated users can see links.]
~~~~~~~~~~~~~~~~~~~~~~~~~~~~~~~~~~
-=== НЕ РЕДАКТИРУЙТЕ ЭТОТ ФАЙЛ! ===-

Путь: ...\1998 - Mina + Celentano

1 -=- Mina Mazzini & Adriano Celentano.ape -=- CDDA (100%)

125547364
[свернуть]

Скачать Mina Mazzini & Adriano Celentano - Mina & Celentano

[Ссылки могут видеть только зарегистрированные и активированные пользователи.]
[Only registered and activated users can see links.]

password: sergych
[свернуть]
My rating to this release: 10/10
__________________
TAIFUN.Wings of Soul

sergych вне форума  
Вверх
 
Похожие темы
Тема Автор Раздел Ответов Последнее сообщение
Альбом Mina / Adriano Celentano - Fantastica / La Mia Storia sergych Зарубежная Поп-Музыка 0 29.09.2013 19:30
Альбом Adriano Celentano - Le Robe Che Ha Detto Adriano sergych Зарубежная Поп-Музыка 0 08.04.2009 20:36
Альбом Adriano Celentano - Unicamente Celentano sergych Зарубежная Поп-Музыка 0 27.10.2008 05:22
Альбом Adriano Celentano - Le Volte Che Celentano E Stato 1 sergych Зарубежная Поп-Музыка 0 15.06.2008 20:05
Adriano Celentano Tolich Видеоклипы 0 22.05.2008 17:31


Метки
1998 , italo pop , mina & celentano , mina mazzini & adriano celentano , pop

Опции темы

Ваши права в разделе
Вы не можете создавать новые темы
Вы не можете отвечать в темах
Вы не можете прикреплять вложения
Вы не можете редактировать свои сообщения

Быстрый переход


Текущее время: 00:41. Часовой пояс GMT +3.

©2008 - 2024 Taifun With Song
Powered by vBulletin® Version 3.8.10
Copyright ©2000 - 2024, vBulletin Solutions, Inc. Перевод: zCarot
При поддержке NIC.UA
0.20574 сек. | MySQL: 17