TAIFUN With Song - качественная и редкая музыка
Навигация
Death Metal Дэт-метал обычно характеризуется крайней степенью жёсткости, интенсивности и скорости в музыке. Дэт-метал известен своей неровной сменой музыкального темпа и размера, чрезвычайно быстрой и сложной гитарной игрой и двойными басовыми барабанными партиями. Типично использование бласт-бита для добавления звуку мощи. Большинство групп используют заниженный и искажённый гитарный звук.

А знаете ли Вы, что...
Какой музыкант однажды спел о том, что забыл слова этой песни?
«Однажды на концерте во Франции солист исландской группы Sigur Rós Йонси забыл текст песни. Не остановившись, он сымпровизировал под ту же музыку: «Чёрт, я забыл слова. Но это ничего. Потому что я во Франции, где никто не поймёт».»
 
Опции темы

  #1
Старый 13.02.2020, 19:53
swint68
Релизёр
Досье
 
Аватар для swint68
По умолчанию Opprobrium - The Fallen Entities


2019 - Opprobrium - The Fallen Entities




Исполнитель/Artist: Opprobrium
Альбом/Album: The Fallen Entities
Год/Year: 2019
Жанр/Genre: Death Metal, Thrash Metal
Страна/Country: Германия
Рекорд-лейбл/Record label: High Roller Records
Номер в каталоге/Catalogue #: HRR 663 CD
Формат/Format: Free Lossless Audio Codec (*.flac)
Качество/Quality: Lossless
Тип рипа/RIP Type: image+.cue
Продолжительность/Length: 00:41:43
Источник/Source: coraxo
Размер/Size: 321 MB

Сканы в комплекте

Треклист

01. Dark Days, Dark Times
02. Creations That Effects
03. Wicked Mysterious Events
04. The Fallen Entities
05. Throughout the Centuries
06. Turmoil Under The Sun
07. In Danger
08. Obstructive Behaviour
[свернуть]

Превью на YouTube

[свернуть]

EAC лог

Exact Audio Copy V0.99 prebeta 5 from 4. May 2009

EAC extraction logfile from 19. January 2020, 3:44

OPPROBRIUM / The Fallen Entities

Used drive : MATSHITADVD-RAM UJ8E1 Adapter: 1 ID: 0

Read mode : Secure
Utilize accurate stream : Yes
Defeat audio cache : Yes
Make use of C2 pointers : No

Read offset correction : 6
Overread into Lead-In and Lead-Out : No
Fill up missing offset samples with silence : Yes
Delete leading and trailing silent blocks : No
Null samples used in CRC calculations : Yes
Used interface : Installed external ASPI interface

Used output format : User Defined Encoder
Selected bitrate : 1024 kBit/s
Quality : High
Add ID3 tag : No
Command line compressor : C:\Program Files\Exact Audio Copy\FLAC\FLAC.EXE
Additional command line options : -V -8 -T "artist=%a" -T "title=%t" -T "album=%g" -T "date=%y" -T "tracknumber=%n" -T "genre=%m" %s


TOC of the extracted CD

Track | Start | Length | Start sector | End sector
---------------------------------------------------------
1 | 0:00.00 | 3:56.60 | 0 | 17759
2 | 3:56.60 | 4:53.10 | 17760 | 39744
3 | 8:49.70 | 5:24.37 | 39745 | 64081
4 | 14:14.32 | 5:18.56 | 64082 | 87987
5 | 19:33.13 | 7:23.09 | 87988 | 121221
6 | 26:56.22 | 4:55.46 | 121222 | 143392
7 | 31:51.68 | 5:04.59 | 143393 | 166251
8 | 36:56.52 | 4:46.23 | 166252 | 187724


Range status and errors

Selected range

Filename C:\FLAC\OPPROBRIUM - The Fallen Entities.wav

Peak level 97.1 %
Range quality 100.0 %
Test CRC 42CE7B84
Copy CRC 42CE7B84
Copy OK

No errors occurred


AccurateRip summary

Track 1 not present in database
Track 2 not present in database
Track 3 not present in database
Track 4 not present in database
Track 5 not present in database
Track 6 not present in database
Track 7 not present in database
Track 8 not present in database

None of the tracks are present in the AccurateRip database

End of status report
[свернуть]

Файл CUE

REM GENRE "Death/Thrash Metal"
REM DATE 2019
REM DISCID 6409C708
REM COMMENT "ExactAudioCopy v0.99pb5"
PERFORMER "OPPROBRIUM"
TITLE "The Fallen Entities"
FILE "OPPROBRIUM - The Fallen Entities.flac" WAVE
TRACK 01 AUDIO
TITLE "Dark Days, Dark Times"
PERFORMER "OPPROBRIUM"
INDEX 01 00:00:00
TRACK 02 AUDIO
TITLE "Creations That Affect"
PERFORMER "OPPROBRIUM"
INDEX 01 03:56:60
TRACK 03 AUDIO
TITLE "Wicked Mysterious Events"
PERFORMER "OPPROBRIUM"
INDEX 01 08:49:70
TRACK 04 AUDIO
TITLE "The Fallen Entities"
PERFORMER "OPPROBRIUM"
INDEX 01 14:14:32
TRACK 05 AUDIO
TITLE "Throughout The Centuries"
PERFORMER "OPPROBRIUM"
INDEX 01 19:33:13
TRACK 06 AUDIO
TITLE "Turmoil Under The Sun"
PERFORMER "OPPROBRIUM"
INDEX 01 26:56:22
TRACK 07 AUDIO
TITLE "In Danger"
PERFORMER "OPPROBRIUM"
INDEX 01 31:51:68
TRACK 08 AUDIO
TITLE "Obstructive Behaviour"
PERFORMER "OPPROBRIUM"
INDEX 01 36:56:52
[свернуть]

Лог проверки качества

-----------------------

DON'T MODIFY THIS FILE

-----------------------

PERFORMER: auCDtect Task Manager, ver. 1.6.0 RC1 build 1.6.0.1
Copyright © 2008-2010 y-soft. All rights reserved
[Ссылки могут видеть только зарегистрированные и активированные пользователи.]
[Only registered and activated users can see links.]

ANALYZER: auCDtect: CD records authenticity detector, version 0.8.2
Copyright © 2004 Oleg Berngardt. All rights reserved.
Copyright © 2004 Alexander Djourik. All rights reserved.


FILE: OPPROBRIUM - The Fallen Entities.flac
Size: 316102030 Hash: DB50800153E01E8324061163A66F3ABA Accuracy: -m0
Conclusion: CDDA 100%
Signature: 54A210396E2F7EB2CB66F8F1A01D324AD7D12B9F
[свернуть]

Скачать Opprobrium - The Fallen Entities

[Ссылки могут видеть только зарегистрированные и активированные пользователи.]
[Only registered and activated users can see links.]
[свернуть]

Вверх
2 пользователя(ей) сказали cпасибо:
sergych (15.02.2020), TAIFUN (15.02.2020)
 
Похожие темы
Тема Автор Раздел Ответов Последнее сообщение
Релиз Burzum - Fallen PUPOKIN Black Metal 0 04.03.2011 10:30
Релиз Hypersonic - Fallen Melodies PUPOKIN Heavy Metal 0 02.03.2011 09:55
Релиз Fallen Figure - Devival PUPOKIN Metalcore 0 31.05.2010 09:21
Релиз Throne Of The Fallen - Throne Of The Fallen PUPOKIN Black Metal 0 07.12.2009 09:01
Evanescence - Fallen SERAF Alternative Rock 0 09.05.2008 07:23


Метки
2019 , death metal , opprobrium , the fallen entities , thrash metal

Опции темы

Ваши права в разделе
Вы не можете создавать новые темы
Вы не можете отвечать в темах
Вы не можете прикреплять вложения
Вы не можете редактировать свои сообщения

Быстрый переход


Текущее время: 11:00. Часовой пояс GMT +3.

© 2008 - 2020 Taifun With Song
Powered by vBulletin® Version 3.8.10
Copyright ©2000 - 2020, vBulletin Solutions, Inc. Перевод: zCarot
При поддержке NIC.UA
Яндекс.Метрика