TAIFUN With Song - качественная и редкая музыка
Навигация
Reggae Впервые возник в 1968 году. Будучи «наследником» рокстеди и ска, реггей значительно от него отличается, уходя от мягкого и где-то слащавого звука (перенятого рокстеди из американского Ритм-энд-блюза), к более жёсткой ритмике, где ритм-секция выступает на первый план.

А знаете ли Вы, что...
Какова самая низкая нота, которую может взять человек?
«Американский певец Тим Стормс обладает самым широким в мире вокальным диапазоном. Ещё один зафиксированный рекорд, принадлежащий Стормсу — самая низкая нота, взятая человеком. Эта нота частотой 0,189 Гц — соль на восемь октав ниже, чем самая низкая соль на фортепиано. Данный звук очень далеко отстоит от порога человеческого восприятия (для обычного человека — 16 Гц), а рекорд фиксировался специальными акустическими приборами.»
 
Опции темы

  #1
Старый 02.11.2019, 20:27
sergych
Координатор
Досье
 
Аватар для sergych
Релиз Diana King - Tougher Than Love


1995 - Diana King - Tougher Than Love




Исполнитель/Artist: Diana King
Альбом/Album: Tougher Than Love
Год/Year: 1995
Жанр/Genre: Reggae fusion, urban, dancehall, R&B
Страна/Country: Япония
Рекорд-лейбл/Record label: Sony Music
Номер в каталоге/Catalogue #: SRCS 7495
Формат/Format: Free Lossless Audio Codec (*.flac)
Качество/Quality: Lossless
Тип рипа/RIP Type: image+.cue
Продолжительность/Length: 00:56:38
Источник/Source: Собственный рип
Размер/Size: 422.8 MB

Сканы в комплекте

Треклист

01. Love Me Thru The Night [0:05:17.72]
02. Shy Guy [0:04:19.73]
03. Love Triangle [0:04:22.05]
04. Ain't Nobody [0:05:23.10]
05. Tougher Than Love [0:03:50.17]
06. Can't Do Without You [0:05:01.58]
07. Slow Rush [0:04:56.55]
08. Treat Her Like A Lady [0:03:54.57]
09. Black Roses [0:05:06.33]
10. Tumble Down [0:04:20.45]

Bonus tracks
11. Hey Jude [0:05:50.27]
12. Lock Him Up [0:04:13.70]
[свернуть]

Превью на YouTube

[свернуть]

EAC лог

Exact Audio Copy V1.3 from 2. September 2016

EAC extraction logfile from 1. September 2019, 17:27

Diana King / Tougher Than Love

Used drive : PIONEER DVD-RW DVR-220L Adapter: 1 ID: 0

Read mode : Secure
Utilize accurate stream : Yes
Defeat audio cache : Yes
Make use of C2 pointers : No

Read offset correction : 6
Overread into Lead-In and Lead-Out : No
Fill up missing offset samples with silence : Yes
Delete leading and trailing silent blocks : No
Null samples used in CRC calculations : Yes
Used interface : Installed external ASPI interface

Used output format : User Defined Encoder
Selected bitrate : 1024 kBit/s
Quality : High
Add ID3 tag : No
Command line compressor : C:\Program Files (x86)\Exact Audio Copy\Flac\flac.exe
Additional command line options : -6 -V -T "ARTIST=%artist%" -T "TITLE=%title%" -T "ALBUM=%albumtitle%" -T "DATE=%year%" -T "TRACKNUMBER=%tracknr%" -T "GENRE=%genre%" -T "COMMENT=%comment%" -T "BAND=%albuminterpret%" -T "ALBUMARTIST=%albuminterpret%" -T "COMPOSER=%composer%" %haslyrics%--tag-from-file=LYRICS="%lyricsfile%"%haslyrics% -T "DISCNUMBER=%cdnumber%" -T "TOTALDISCS=%totalcds%" -T "TOTALTRACKS=%numtracks%" %hascover%--picture="%coverfile%"%hascover% %source% -o %dest%


TOC of the extracted CD

Track | Start | Length | Start sector | End sector
---------------------------------------------------------
1 | 0:00.00 | 5:17.72 | 0 | 23846
2 | 5:17.72 | 4:19.73 | 23847 | 43344
3 | 9:37.70 | 4:22.05 | 43345 | 62999
4 | 14:00.00 | 5:23.10 | 63000 | 87234
5 | 19:23.10 | 3:50.17 | 87235 | 104501
6 | 23:13.27 | 5:01.58 | 104502 | 127134
7 | 28:15.10 | 4:56.55 | 127135 | 149389
8 | 33:11.65 | 3:54.57 | 149390 | 166996
9 | 37:06.47 | 5:06.33 | 166997 | 189979
10 | 42:13.05 | 4:20.45 | 189980 | 209524
11 | 46:33.50 | 5:50.27 | 209525 | 235801
12 | 52:24.02 | 4:13.70 | 235802 | 254846


Range status and errors

Selected range

Filename C:\mm\Diana King\1995 - Tougher Than Love [SRCS 7495]\Diana King - Tougher Than Love.wav

Peak level 100.0 %
Extraction speed 7.3 X
Range quality 100.0 %
Test CRC D626694E
Copy CRC D626694E
Copy OK

No errors occurred


AccurateRip summary

Track 1 accurately ripped (confidence 14) [3450D877] (AR v2)
Track 2 accurately ripped (confidence 13) [026F3A9E] (AR v2)
Track 3 accurately ripped (confidence 13) [D619D069] (AR v2)
Track 4 accurately ripped (confidence 13) [0073B6C2] (AR v2)
Track 5 accurately ripped (confidence 14) [BF6C1058] (AR v2)
Track 6 accurately ripped (confidence 15) [EEC0C0CF] (AR v2)
Track 7 accurately ripped (confidence 14) [E205E073] (AR v2)
Track 8 accurately ripped (confidence 14) [0C7EE7B8] (AR v2)
Track 9 accurately ripped (confidence 14) [7012CF04] (AR v2)
Track 10 accurately ripped (confidence 14) [50B8A990] (AR v2)
Track 11 accurately ripped (confidence 15) [A60E2BE6] (AR v2)
Track 12 accurately ripped (confidence 13) [0F496914] (AR v2)

All tracks accurately ripped

End of status report
[свернуть]

Файл CUE

REM GENRE R&B
REM DATE 1995
REM DISCID C00D450C
REM COMMENT "ExactAudioCopy v1.3"
PERFORMER "Diana King"
TITLE "Tougher Than Love"
REM COMPOSER ""
FILE "Diana King - Tougher Than Love.flac" WAVE
TRACK 01 AUDIO
TITLE "Love Me Thru The Night"
PERFORMER "Diana King"
REM COMPOSER ""
INDEX 01 00:00:00
TRACK 02 AUDIO
TITLE "Shy Guy"
PERFORMER "Diana King"
REM COMPOSER ""
INDEX 01 05:17:72
TRACK 03 AUDIO
TITLE "Love Triangle"
PERFORMER "Diana King"
REM COMPOSER ""
INDEX 01 09:37:70
TRACK 04 AUDIO
TITLE "Ain't Nobody"
PERFORMER "Diana King"
REM COMPOSER ""
INDEX 01 14:00:00
TRACK 05 AUDIO
TITLE "Tougher Than Love"
PERFORMER "Diana King"
REM COMPOSER ""
INDEX 01 19:23:10
TRACK 06 AUDIO
TITLE "Can't Do Without You"
PERFORMER "Diana King"
REM COMPOSER ""
INDEX 01 23:13:27
TRACK 07 AUDIO
TITLE "Slow Rush"
PERFORMER "Diana King"
REM COMPOSER ""
INDEX 01 28:15:10
TRACK 08 AUDIO
TITLE "Treat Her Like A Lady"
PERFORMER "Diana King"
REM COMPOSER ""
INDEX 01 33:11:65
TRACK 09 AUDIO
TITLE "Black Roses"
PERFORMER "Diana King"
REM COMPOSER ""
INDEX 01 37:06:47
TRACK 10 AUDIO
TITLE "Tumble Down"
PERFORMER "Diana King"
REM COMPOSER ""
INDEX 01 42:13:05
TRACK 11 AUDIO
TITLE "Hey Jude"
PERFORMER "Diana King"
REM COMPOSER ""
INDEX 00 46:31:57
INDEX 01 46:33:50
TRACK 12 AUDIO
TITLE "Lock Him Up"
PERFORMER "Diana King"
REM COMPOSER ""
INDEX 01 52:24:02
[свернуть]

Лог проверки качества

AUDIOCHECKER v2.0 beta (build 457) - by Dester - [Ссылки могут видеть только зарегистрированные и активированные пользователи.]
[Only registered and activated users can see links.]
~~~~~~~~~~~~~~~~~~~~~~~~~~~~~~~~~~
-=== НЕ РЕДАКТИРУЙТЕ ЭТОТ ФАЙЛ! ===-

Путь: ...\1995 - Tougher Than Love [SRCS 7495]

1 -=- Diana King - Tougher Than Love.flac -=- CDDA (99%)

69806036
[свернуть]

Спектр частот

[свернуть]

Скачать Diana King - Tougher Than Love

[Ссылки могут видеть только зарегистрированные и активированные пользователи.]
[Only registered and activated users can see links.]

password: sergych
[свернуть]

Контрольная сумма (хеш-сумма) архива

MD5: c15425551bc6982abd66a2c7ca6ec7ca
[свернуть]
My opinion of release: 9/10
__________________
TAIFUN.Wings of Soul

Вверх
4 пользователя(ей) сказали cпасибо:
johnsilver (09.11.2019), swint68 (03.11.2019), TAIFUN (06.11.2019), Павел1 (03.11.2019)
 
  #2
Старый 09.02.2020, 02:27
matheusteu0701
Пользователь
Досье
 
Аватар для matheusteu0701
По умолчанию Re: Diana King - Tougher Than Love

yaaas

Вверх
Похожие темы
Тема Автор Раздел Ответов Последнее сообщение
Альбом Diana King - Think Like A Girl sergych Reggae 0 18.06.2019 20:45
Альбом Diana Krall - All for You: A Dedication to the Nat King Cole Trio sergych Jazz и Blues 1 11.04.2018 23:33
Альбом Diana Krall - The Look Of Love sergych Jazz и Blues 1 15.03.2014 14:16
Микс Diana Ross - Almighty Presents: We Love Diana Ross PUPOKIN Dance 1 07.01.2010 11:43
Альбом Diana Ross - I Love You sergych Зарубежная Поп-Музыка 0 14.06.2009 21:11


Метки
1995 , dancehall , diana king , r&b , reggae fusion , tougher than love , urban

Опции темы

Ваши права в разделе
Вы не можете создавать новые темы
Вы не можете отвечать в темах
Вы не можете прикреплять вложения
Вы не можете редактировать свои сообщения

Быстрый переход



Текущее время: 03:56. Часовой пояс GMT +3.
Powered by vBulletin® Version 3.8.10
Copyright ©2000 - 2020, vBulletin Solutions, Inc. Перевод: zCarot
© 2008 - 2020 Taifun With Song
Яндекс.Метрика