TAIFUN With Song - качественная и редкая музыка
Навигация
А знаете ли Вы, что...
Хобби Альберта Эйнштейна!
«Эйнштейн любил играть на скрипке и однажды принял участие в благотворительном концерте в Германии.»
 
Опции темы

  #1
Старый 22.11.2015, 17:39
sergych
Координатор
Досье
 
Аватар для sergych
FLAC Mariah Carey - Merry Christmas II You


2010 - Mariah Carey - Merry Christmas II You




Исполнитель/Artist: Mariah Carey
Альбом/Album: Merry Christmas II You
Год/Year: 2010
Жанр/Genre: Christmas, pop, R&B, Gospel
Страна/Country: Соединённые Штаты
Рекорд-лейбл/Record label: The Island Def Jam Music Group
Номер в каталоге/Catalogue #: B0014785-02



Формат/Format: Free Lossless Audio Codec (*.flac)
Качество/Quality: Lossless
Тип рипа/RIP Type: image+.cue
Продолжительность/Length: 00:47:00
Источник/Source: Собственный рип
Размер/Size: 395.1 MB

Сканы в комплекте

Треклист

01. Santa Claus Is Coming to Town [Intro] [0:00:22.68]
02. Oh Santa! [0:03:31.00]
03. O Little Town of Bethlehem _ Little Drummer Boy [Medley] [0:03:32.32]
04. Christmas Time Is in the Air Again [0:03:01.55]
05. The First Noel _ Born Is the King [Interlude] [0:04:32.40]
06. When Christmas Comes [0:04:46.03]
07. Here Comes Santa Claus (Right Down Santa Claus Lane)-Housetop Celebration [0:03:29.43]
08. Charlie Brown Christmas [0:02:49.06]
09. O Come All Ye Faithful _ Hallelujah Chorus [feat. Patricia Carey] [0:03:38.30]
10. O Holy Night [Live From WPC In South Central Los Angeles] [0:05:00.22]
11. One Child [0:04:25.69]
12. All I Want for Christmas Is You-Extra Festive [0:04:02.26]
13. Auld Lang Syne - The New Year's Anthem [0:03:47.43]
[свернуть]

youtube.com

[свернуть]

EAC лог

Exact Audio Copy V1.1 from 23. June 2015

EAC extraction logfile from 3. November 2015, 21:31

Mariah Carey / Merry Christmas II You

Used drive : ATAPI iHAS124 D Adapter: 0 ID: 2

Read mode : Secure
Utilize accurate stream : Yes
Defeat audio cache : Yes
Make use of C2 pointers : No

Read offset correction : 6
Overread into Lead-In and Lead-Out : No
Fill up missing offset samples with silence : Yes
Delete leading and trailing silent blocks : No
Null samples used in CRC calculations : Yes
Used interface : Installed external ASPI interface

Used output format : User Defined Encoder
Selected bitrate : 1024 kBit/s
Quality : High
Add ID3 tag : Yes
Command line compressor : C:\Program Files (x86)\Exact Audio Copy\Flac\flac.exe
Additional command line options : -6 -V -T "ARTIST=%artist%" -T "TITLE=%title%" -T "ALBUM=%albumtitle%" -T "DATE=%year%" -T "TRACKNUMBER=%tracknr%" -T "GENRE=%genre%" -T "COMMENT=%comment%" -T "BAND=%albuminterpret%" -T "COMPOSER=%composer%" %haslyrics%--tag-from-file=LYRICS="%lyricsfile%"%haslyrics% -T "DISCNUMBER=%cdnumber%" -T "TOTALDISCS=%totalcds%" -T "TOTALTRACKS=%numtracks%" %hascover%--picture="%coverfile%"%hascover% %source% -o %dest%


TOC of the extracted CD

Track | Start | Length | Start sector | End sector
---------------------------------------------------------
1 | 0:00.00 | 0:22.68 | 0 | 1717
2 | 0:22.68 | 3:31.00 | 1718 | 17542
3 | 3:53.68 | 3:32.32 | 17543 | 33474
4 | 7:26.25 | 3:01.55 | 33475 | 47104
5 | 10:28.05 | 4:32.40 | 47105 | 67544
6 | 15:00.45 | 4:46.03 | 67545 | 88997
7 | 19:46.48 | 3:29.43 | 88998 | 104715
8 | 23:16.16 | 2:49.06 | 104716 | 117396
9 | 26:05.22 | 3:38.30 | 117397 | 133776
10 | 29:43.52 | 5:00.22 | 133777 | 156298
11 | 34:43.74 | 4:25.69 | 156299 | 176242
12 | 39:09.68 | 4:02.26 | 176243 | 194418
13 | 43:12.19 | 3:47.43 | 194419 | 211486


Range status and errors

Selected range

Filename C:\mm\Mariah Carey\2010 - Merry Christmas II You [B0014785-02]\Mariah Carey - Merry Christmas II You.wav

Peak level 100.0 %
Extraction speed 9.3 X
Range quality 100.0 %
Test CRC 35923CA6
Copy CRC 35923CA6
Copy OK

No errors occurred


AccurateRip summary

Track 1 accurately ripped (confidence 77) [8E165286] (AR v2)
Track 2 accurately ripped (confidence 77) [39E8876B] (AR v2)
Track 3 accurately ripped (confidence 77) [3F526432] (AR v2)
Track 4 accurately ripped (confidence 77) [667E447B] (AR v2)
Track 5 accurately ripped (confidence 78) [17222E9B] (AR v2)
Track 6 accurately ripped (confidence 77) [AEA04A6A] (AR v2)
Track 7 accurately ripped (confidence 78) [063CCFA1] (AR v2)
Track 8 accurately ripped (confidence 78) [80B31F07] (AR v2)
Track 9 accurately ripped (confidence 78) [60033233] (AR v2)
Track 10 accurately ripped (confidence 78) [04F44805] (AR v2)
Track 11 accurately ripped (confidence 78) [9E62BA04] (AR v2)
Track 12 accurately ripped (confidence 78) [A91B22F8] (AR v2)
Track 13 accurately ripped (confidence 78) [D8207AB7] (AR v2)

All tracks accurately ripped

End of status report
[свернуть]

Файл CUE

REM GENRE Christmas
REM DATE 2010
REM DISCID B30B030D
REM COMMENT "ExactAudioCopy v1.1"
PERFORMER "Mariah Carey"
TITLE "Merry Christmas II You"
FILE "Mariah Carey - Merry Christmas II You.flac" WAVE
TRACK 01 AUDIO
TITLE "Santa Claus Is Coming to Town [Intro]"
PERFORMER "Mariah Carey"
INDEX 01 00:00:00
TRACK 02 AUDIO
TITLE "Oh Santa!"
PERFORMER "Mariah Carey"
INDEX 01 00:22:68
TRACK 03 AUDIO
TITLE "O Little Town of Bethlehem _ Little Drummer Boy [Medley]"
PERFORMER "Mariah Carey"
INDEX 01 03:53:68
TRACK 04 AUDIO
TITLE "Christmas Time Is in the Air Again"
PERFORMER "Mariah Carey"
INDEX 01 07:26:25
TRACK 05 AUDIO
TITLE "The First Noel _ Born Is the King [Interlude]"
PERFORMER "Mariah Carey"
INDEX 01 10:28:05
TRACK 06 AUDIO
TITLE "When Christmas Comes"
PERFORMER "Mariah Carey"
INDEX 01 15:00:45
TRACK 07 AUDIO
TITLE "Here Comes Santa Claus (Right Down Santa Claus Lane)-Housetop Celebration"
PERFORMER "Mariah Carey"
INDEX 01 19:46:48
TRACK 08 AUDIO
TITLE "Charlie Brown Christmas"
PERFORMER "Mariah Carey"
INDEX 00 23:14:49
INDEX 01 23:16:16
TRACK 09 AUDIO
TITLE "O Come All Ye Faithful _ Hallelujah Chorus [feat. Patricia Carey]"
PERFORMER "Mariah Carey"
INDEX 01 26:05:22
TRACK 10 AUDIO
TITLE "O Holy Night [Live From WPC In South Central Los Angeles]"
PERFORMER "Mariah Carey"
INDEX 01 29:43:52
TRACK 11 AUDIO
TITLE "One Child"
PERFORMER "Mariah Carey"
INDEX 01 34:43:74
TRACK 12 AUDIO
TITLE "All I Want for Christmas Is You-Extra Festive"
PERFORMER "Mariah Carey"
INDEX 01 39:09:68
TRACK 13 AUDIO
TITLE "Auld Lang Syne - The New Year's Anthem"
PERFORMER "Mariah Carey"
INDEX 01 43:12:19
[свернуть]

Лог проверки качества

AUDIOCHECKER v2.0 beta (build 457) - by Dester - [Ссылки могут видеть только зарегистрированные и активированные пользователи.]
[Only registered and activated users can see links.]
~~~~~~~~~~~~~~~~~~~~~~~~~~~~~~~~~~
-=== НЕ РЕДАКТИРУЙТЕ ЭТОТ ФАЙЛ! ===-

Путь: ...\2010 - Merry Christmas II You [B0014785-02]

1 -=- Mariah Carey - Merry Christmas II You.flac -=- CDDA (100%)

27687700
[свернуть]

Спектр частот

[свернуть]

Скачать Mariah Carey - Merry Christmas II You

[Ссылки могут видеть только зарегистрированные и активированные пользователи.]
[Only registered and activated users can see links.]

password: sergych
[свернуть]
My opinion of release: 10/10
__________________
TAIFUN.Wings of Soul


Последний раз редактировалось sergych, 06.02.2020 в 23:55. Причина: перезаливка
Вверх
6 пользователя(ей) сказали cпасибо:
Chert (22.12.2015), Dmitri (25.11.2015), johnsilver (22.06.2017), Lighting1981 (06.02.2020), swint68 (27.03.2017), TAIFUN (06.02.2020)
 
  #2
Старый 06.02.2020, 20:33
Lighting1981
Пользователь
Досье
 
Аватар для Lighting1981
По умолчанию Re: Mariah Carey - Merry Christmas II You

Огромное спасибо за Ваши рипы!
Если есть возможность, перезалейте пожалуйста. Ссылка не рабочая.

Вверх
2 пользователя(ей) сказали cпасибо:
sergych (06.02.2020), TAIFUN (07.02.2020)
  #3
Старый 06.02.2020, 23:57
sergych
Координатор
Досье
 
Аватар для sergych
По умолчанию Re: Mariah Carey - Merry Christmas II You

Цитата: Сообщение от Lighting1981 Посмотреть сообщение
перезалейте пожалуйста

сделано. Приятного прослушивания
__________________
TAIFUN.Wings of Soul

Вверх
2 пользователя(ей) сказали cпасибо:
Lighting1981 (07.02.2020), TAIFUN (07.02.2020)
  #4
Старый 07.02.2020, 09:42
Lighting1981
Пользователь
Досье
 
Аватар для Lighting1981
По умолчанию Re: Mariah Carey - Merry Christmas II You

Большое спасибо! Всего Вам наилучшего!

Вверх
2 пользователя(ей) сказали cпасибо:
sergych (08.02.2020), TAIFUN (07.02.2020)
  #5
Старый 09.02.2020, 01:25
matheusteu0701
Пользователь
Досье
 
Аватар для matheusteu0701
По умолчанию Re: Mariah Carey - Merry Christmas II You

Thank you!

Вверх
Похожие темы
Тема Автор Раздел Ответов Последнее сообщение
Сборник Mariah Carey - #1's sergych R&B 1 14.10.2017 22:35
Альбом Mariah Carey - Merry Christmas sergych Зарубежная Поп-Музыка 0 22.11.2015 17:14
Альбом Mariah Carey - Mariah Carey sergych R&B 0 17.09.2015 19:37
Альбом New Kids On The Block - Merry Merry Christmas Tolich Зарубежная Поп-Музыка 0 22.10.2008 16:53
Альбом Mariah Carey - E=MC2 LUСIAN R&B 0 19.04.2008 23:25


Метки
2010 , christmas , gospel , mariah carey , merry christmas ii you , pop , r&b

Опции темы

Ваши права в разделе
Вы не можете создавать новые темы
Вы не можете отвечать в темах
Вы не можете прикреплять вложения
Вы не можете редактировать свои сообщения

Быстрый переход


Текущее время: 11:19. Часовой пояс GMT +3.

© 2008 - 2020 Taifun With Song
Powered by vBulletin® Version 3.8.10
Copyright ©2000 - 2020, vBulletin Solutions, Inc. Перевод: zCarot
При поддержке NIC.UA
Яндекс.Метрика