TAIFUN With Song - качественная и редкая музыка
Навигация
Progressive Rock Единственной универсальной характеристикой прогрессивного рока является усложнение музыкальной формы. Это проявляется в удлиннении и усложнении музыкальных пьес, тяготении к циклическим формам академической музыки; расширении репертуара используемых тембров, усложнении метра и ритма, использовании нетрадиционных для рока мелодических и гармонических решений; поэзии, уходящей от тем развлекательной музыки и тяготеющей к философским «вечным темам», фантастической и фентезийной тематике; переплетении с классической и современной академической музыкой, джазом.

А знаете ли Вы, что...
Какая группа заработала 20 000 $, пока её фанаты слушали тишину?
«Музыкальный сервис Spotify, позволяющий слушать музыку онлайн, выплачивает музыкантам вознаграждение за каждый проигранный трек, если время воспроизведения составляло не меньше 30 секунд. В марте 2014 года фанк-группа Vulfpeck загрузила на Spotify альбом «Sleepify» из десяти композиций, каждая из которых представляла собой чуть больше 30 секунд тишины. Музыканты попросили своих фанатов включать его каждую ночь в зацикленном режиме. Через семь недель сервис решил всё-таки удалить альбом, но заработанных 20 000 $ группе хватило для организации тура бесплатных концертов.»
 
Опции темы

  #1
Старый 08.02.2015, 10:12
sergych
Координатор
Досье
 
Аватар для sergych
FLAC Genesis - Abacab


1981(2007) - Genesis - Abacab




Исполнитель/Artist: Genesis
Альбом/Album: Abacab
Год/Year: 1981
Ремастеринг/Remaster: 2007
Жанр/Genre: Progressive rock, art rock, pop rock
Страна/Country: Аргентина
Рекорд-лейбл/Record label: Charisma Records / Virgin Records
Номер в каталоге/Catalogue #: 00946 3916442 4
Формат/Format: Free Lossless Audio Codec (*.flac)
Качество/Quality: Lossless
Тип рипа/RIP Type: image+.cue
Продолжительность/Length: 00:47:07
Источник/Source: Собственный рип
Размер/Size: 345.5 MB

Сканы в комплекте

Треклист

01. Abacab [0:06:57.11]
02. No Reply At All [0:04:33.58]
03. Me And Sarah Jane [0:06:02.27]
04. Keep It Dark [0:04:32.25]
05. Dodo/Lurker [0:07:31.53]
06. Who Dunnit? [0:03:24.45]
07. Man On The Corner [0:04:27.30]
08. Like It Or Not [0:04:58.57]
09. Another Record [0:04:38.67]
[свернуть]

youtube.com

[свернуть]

Исполнители/Performers

Tony Banks – keyboards
Phil Collins – drums, percussion, vocals, drum machines
Mike Rutherford – bass guitar, bass pedals, guitars

Additional personnel
EWF Horns – horns on "No Reply At All" and "Paperlate"
[свернуть]

EAC лог

Exact Audio Copy V1.0 beta 3 from 29. August 2011

EAC extraction logfile from 7. February 2015, 19:29

Genesis / Abacab

Used drive : ATAPI iHAS124 D Adapter: 0 ID: 2

Read mode : Secure
Utilize accurate stream : Yes
Defeat audio cache : Yes
Make use of C2 pointers : No

Read offset correction : 6
Overread into Lead-In and Lead-Out : No
Fill up missing offset samples with silence : Yes
Delete leading and trailing silent blocks : No
Null samples used in CRC calculations : Yes
Used interface : Installed external ASPI interface

Used output format : User Defined Encoder
Selected bitrate : 1024 kBit/s
Quality : High
Add ID3 tag : No
Command line compressor : C:\Program Files (x86)\Exact Audio Copy\Flac\flac.exe
Additional command line options : -6 -V -T "ARTIST=%artist%" -T "TITLE=%title%" -T "ALBUM=%albumtitle%" -T "DATE=%year%" -T "TRACKNUMBER=%tracknr%" -T "GENRE=%genre%" -T "COMMENT=%comment%" -T "BAND=%albuminterpret%" -T "COMPOSER=%composer%" %haslyrics%--tag-from-file=LYRICS="%lyricsfile%"%haslyrics% -T "DISCNUMBER=%cdnumber%" -T "TOTALDISCS=%totalcds%" -T "TOTALTRACKS=%numtracks%" %hascover%--picture="%coverfile%"%hascover% %source% -o %dest%


TOC of the extracted CD

Track | Start | Length | Start sector | End sector
---------------------------------------------------------
1 | 0:01.00 | 6:57.11 | 75 | 31360
2 | 6:58.11 | 4:33.58 | 31361 | 51893
3 | 11:31.69 | 6:02.27 | 51894 | 79070
4 | 17:34.21 | 4:32.25 | 79071 | 99495
5 | 22:06.46 | 7:31.53 | 99496 | 133373
6 | 29:38.24 | 3:24.45 | 133374 | 148718
7 | 33:02.69 | 4:27.30 | 148719 | 168773
8 | 37:30.24 | 4:58.57 | 168774 | 191180
9 | 42:29.06 | 4:38.67 | 191181 | 212097


Range status and errors

Selected range

Filename C:\mm\Genesis\1981(2007) - Abacab [00946 3916442 4]\Genesis - Abacab.wav

Peak level 100.0 %
Extraction speed 8.7 X
Range quality 99.9 %
Test CRC 45EAF36D
Copy CRC 45EAF36D
Copy OK

No errors occurred


AccurateRip summary

Track 1 accurately ripped (confidence 65) [B27CF472] (AR v2)
Track 2 accurately ripped (confidence 65) [962377CF] (AR v2)
Track 3 accurately ripped (confidence 64) [42773C79] (AR v2)
Track 4 accurately ripped (confidence 63) [AE80C3D5] (AR v2)
Track 5 accurately ripped (confidence 63) [94366627] (AR v2)
Track 6 accurately ripped (confidence 63) [7A27A64D] (AR v2)
Track 7 accurately ripped (confidence 66) [FC8F8099] (AR v2)
Track 8 accurately ripped (confidence 64) [F49BCC97] (AR v2)
Track 9 accurately ripped (confidence 63) [FBD4E456] (AR v2)

All tracks accurately ripped

End of status report
[свернуть]

Файл CUE

REM GENRE Pop
REM DATE 1981
REM DISCID 730B0A09
REM COMMENT "ExactAudioCopy v1.0b3"
PERFORMER "Genesis"
TITLE "Abacab"
FILE "Genesis - Abacab.flac" WAVE
TRACK 01 AUDIO
TITLE "Abacab"
PERFORMER "Genesis"
INDEX 00 00:00:00
INDEX 01 00:01:00
TRACK 02 AUDIO
TITLE "No Reply At All"
PERFORMER "Genesis"
INDEX 01 06:58:11
TRACK 03 AUDIO
TITLE "Me And Sarah Jane"
PERFORMER "Genesis"
INDEX 01 11:31:69
TRACK 04 AUDIO
TITLE "Keep It Dark"
PERFORMER "Genesis"
INDEX 01 17:34:21
TRACK 05 AUDIO
TITLE "Dodo/Lurker"
PERFORMER "Genesis"
INDEX 01 22:06:46
TRACK 06 AUDIO
TITLE "Who Dunnit?"
PERFORMER "Genesis"
INDEX 01 29:38:24
TRACK 07 AUDIO
TITLE "Man On The Corner"
PERFORMER "Genesis"
INDEX 01 33:02:69
TRACK 08 AUDIO
TITLE "Like It Or Not"
PERFORMER "Genesis"
INDEX 01 37:30:24
TRACK 09 AUDIO
TITLE "Another Record"
PERFORMER "Genesis"
INDEX 01 42:29:06
[свернуть]

Лог проверки качества

AUDIOCHECKER v2.0 beta (build 457) - by Dester - [Ссылки могут видеть только зарегистрированные и активированные пользователи.]
[Only registered and activated users can see links.]
~~~~~~~~~~~~~~~~~~~~~~~~~~~~~~~~~~
-=== НЕ РЕДАКТИРУЙТЕ ЭТОТ ФАЙЛ! ===-

Путь: ...\1981(2007) - Abacab [00946 3916442 4]

1 -=- Genesis - Abacab.flac -=- CDDA (100%)

165873028
[свернуть]

Спектр частот

[свернуть]

Скачать Genesis - Abacab

[Ссылки могут видеть только зарегистрированные и активированные пользователи.]
[Only registered and activated users can see links.]

password: sergych
[свернуть]
My opinion of release: 8/10
__________________
TAIFUN.Wings of Soul

Вверх
2 пользователя(ей) сказали cпасибо:
Lighting1981 (09.02.2020), TAIFUN (09.02.2020)
 
  #2
Старый 09.02.2020, 00:07
TAIFUN
Admin
Досье
 
Аватар для TAIFUN
По умолчанию Re: Genesis - Abacab

sergych, тёзка, а у тебя есть альбом "Genesis" 83-ого?
Мой любимый альбом, но под рукой нет диска.
__________________
I love the music
FAQ по форуму
Правила форума
Mare liberum apertum - Море открыто для всех

Вверх
  #3
Старый 09.02.2020, 09:59
sergych
Координатор
Досье
 
Аватар для sergych
По умолчанию Re: Genesis - Abacab

Цитата: Сообщение от TAIFUN Посмотреть сообщение
"Genesis" 83-ого

своего нет, только [Ссылки могут видеть только зарегистрированные и активированные пользователи.]
[Only registered and activated users can see links.] . Пароль на архив sergych
__________________
TAIFUN.Wings of Soul

Вверх
Пользователь сказал cпасибо:
TAIFUN (11.02.2020)
  #4
Старый 11.02.2020, 23:52
TAIFUN
Admin
Досье
 
Аватар для TAIFUN
По умолчанию Re: Genesis - Abacab

sergych, благодарю, тёзка. С инета у меня тоже есть (Англия, Япония и ещё какой-то). Хотелось не стороннее послушать, а своё, так сказать.)
__________________
I love the music
FAQ по форуму
Правила форума
Mare liberum apertum - Море открыто для всех

Вверх
Пользователь сказал cпасибо:
sergych (15.02.2020)
Похожие темы
Тема Автор Раздел Ответов Последнее сообщение
Альбом Genesis - Duke sergych Progressive Rock 0 22.11.2014 17:05
Альбом Genesis - Calling All Stations sergych Progressive Rock 0 13.09.2014 07:10
Live Genesis - The Way We Walk, Volume 2: The Longs sergych Progressive Rock 0 11.06.2014 22:54
Релиз Adamantine – Chaos Genesis PUPOKIN Thrash Metal 0 06.04.2012 08:41
Релиз SeecreeS - Genesis PUPOKIN Death Metal 0 09.06.2011 08:37


Метки
1981 , 2007 , abacab , art rock , genesis , pop rock , progressive rock

Опции темы

Ваши права в разделе
Вы не можете создавать новые темы
Вы не можете отвечать в темах
Вы не можете прикреплять вложения
Вы не можете редактировать свои сообщения

Быстрый переход


Текущее время: 11:29. Часовой пояс GMT +3.

© 2008 - 2020 Taifun With Song
Powered by vBulletin® Version 3.8.10
Copyright ©2000 - 2020, vBulletin Solutions, Inc. Перевод: zCarot
При поддержке NIC.UA
Яндекс.Метрика