TAIFUN With Song - качественная и редкая музыка
Навигация
Soft Rock Это музыкальный стиль, который использует технику рок-н-ролла чтобы достичь более мягкого, более приятного для слуха звука, чтобы такую музыку было приятно слушать, например, на работе или за рулем. Soft rock всегда поется с высокими голосами, если певец мужчина, то он будет петь фальцетом, слова soft rock’а всегда сфокусированы на приятные темы, такие, как любовь, ежедневная жизнь и дружба.

А знаете ли Вы, что...
Какой отработанный медицинский материал использовался советскими изготовителями кустарных пластинок?
«В СССР для изготовления кустарных пластинок, на которые записывалась нелегальная музыка, широко использовали старые рентгеновские снимки. Их называли «пластинки на костях» или «пластинки на рёбрах». Этот материал обходился бесплатно, медперсонал даже благодарил тех, кто помогал разгружать архивы.»
 
Опции темы

  #1
Старый 13.08.2019, 13:03
sergych
Координатор
Досье
 
Аватар для sergych
Релиз 10cc - The Things We Do For Love


1990 - 10cc - The Things We Do For Love




Исполнитель/Artist: 10cc
Альбом/Album: The Things We Do For Love
Год/Year: 1990
Жанр/Genre: Rock, art rock, progressive rock, soft rock
Страна/Country: Япония
Рекорд-лейбл/Record label: PolyGram / Mercury
Номер в каталоге/Catalogue #: PHCR-4062
Формат/Format: Free Lossless Audio Codec (*.flac)
Качество/Quality: Lossless
Тип рипа/RIP Type: image+.cue
Продолжительность/Length: 01:10:06
Источник/Source: Собственный рип
Размер/Size: 433.6 MB

Сканы в комплекте

Треклист

01. Life Is A Minestrone [0:04:29.27]
02. I'm Not In Love [0:06:06.35]
03. The Second Sitting For The Last Supper [0:04:26.13]
04. Art For Arts Sake [0:04:22.10]
05. I'm Mandy, Fly Me [0:05:21.42]
06. Rock 'N' Roll Lullaby [0:04:01.33]
07. Don't Hang Up [0:06:20.57]
08. The Things We Do For Love [0:03:22.65]
09. Good Morning Judge [0:02:55.68]
10. People In Love [0:03:48.20]
11. Dreadlock Holiday [0:05:02.17]
12. For You And I [0:05:20.50]
13. One-Two-Five [0:05:14.00]
14. Don't Ask [0:04:04.10]
15. Oomachasaooma (Feel The Love) [0:05:10.03]
[свернуть]

Превью на YouTube

[свернуть]

EAC лог

Exact Audio Copy V1.3 from 2. September 2016

EAC extraction logfile from 27. June 2019, 20:52

10cc / The Things We Do For Love

Used drive : PIONEER DVD-RW DVR-220L Adapter: 1 ID: 0

Read mode : Secure
Utilize accurate stream : Yes
Defeat audio cache : Yes
Make use of C2 pointers : No

Read offset correction : 6
Overread into Lead-In and Lead-Out : No
Fill up missing offset samples with silence : Yes
Delete leading and trailing silent blocks : No
Null samples used in CRC calculations : Yes
Used interface : Installed external ASPI interface

Used output format : User Defined Encoder
Selected bitrate : 1024 kBit/s
Quality : High
Add ID3 tag : No
Command line compressor : C:\Program Files (x86)\Exact Audio Copy\Flac\flac.exe
Additional command line options : -6 -V -T "ARTIST=%artist%" -T "TITLE=%title%" -T "ALBUM=%albumtitle%" -T "DATE=%year%" -T "TRACKNUMBER=%tracknr%" -T "GENRE=%genre%" -T "COMMENT=%comment%" -T "BAND=%albuminterpret%" -T "ALBUMARTIST=%albuminterpret%" -T "COMPOSER=%composer%" %haslyrics%--tag-from-file=LYRICS="%lyricsfile%"%haslyrics% -T "DISCNUMBER=%cdnumber%" -T "TOTALDISCS=%totalcds%" -T "TOTALTRACKS=%numtracks%" %hascover%--picture="%coverfile%"%hascover% %source% -o %dest%


TOC of the extracted CD

Track | Start | Length | Start sector | End sector
---------------------------------------------------------
1 | 0:00.00 | 4:29.27 | 0 | 20201
2 | 4:29.27 | 6:06.35 | 20202 | 47686
3 | 10:35.62 | 4:26.13 | 47687 | 67649
4 | 15:02.00 | 4:22.10 | 67650 | 87309
5 | 19:24.10 | 5:21.42 | 87310 | 111426
6 | 24:45.52 | 4:01.33 | 111427 | 129534
7 | 28:47.10 | 6:20.57 | 129535 | 158091
8 | 35:07.67 | 3:22.65 | 158092 | 173306
9 | 38:30.57 | 2:55.68 | 173307 | 186499
10 | 41:26.50 | 3:48.20 | 186500 | 203619
11 | 45:14.70 | 5:02.17 | 203620 | 226286
12 | 50:17.12 | 5:20.50 | 226287 | 250336
13 | 55:37.62 | 5:14.00 | 250337 | 273886
14 | 60:51.62 | 4:04.10 | 273887 | 292196
15 | 64:55.72 | 5:10.03 | 292197 | 315449


Range status and errors

Selected range

Filename C:\mm\10CC\1990 - The Things We Do For Love [PHCR-4062]\10cc - The Things We Do For Love.wav

Peak level 100.0 %
Extraction speed 8.3 X
Range quality 100.0 %
Test CRC F89271C6
Copy CRC F89271C6
Copy OK

No errors occurred


AccurateRip summary

Track 1 cannot be verified as accurate (confidence 2) [8C8570EA], AccurateRip returned [269D276E] (AR v2)
Track 2 cannot be verified as accurate (confidence 2) [BD5B71A7], AccurateRip returned [F41E08BC] (AR v2)
Track 3 cannot be verified as accurate (confidence 2) [92688E6E], AccurateRip returned [61E9E07C] (AR v2)
Track 4 cannot be verified as accurate (confidence 2) [0A099F01], AccurateRip returned [8FACF333] (AR v2)
Track 5 cannot be verified as accurate (confidence 2) [EB9AE4C7], AccurateRip returned [F9101A3F] (AR v2)
Track 6 cannot be verified as accurate (confidence 2) [C1F9D6B2], AccurateRip returned [A37DDAD6] (AR v2)
Track 7 accurately ripped (confidence 1) [C574AAA3] (AR v2)
Track 8 cannot be verified as accurate (confidence 3) [E40A3707], AccurateRip returned [1F957B20] (AR v2)
Track 9 cannot be verified as accurate (confidence 3) [4EBCD39F], AccurateRip returned [3D6E86BB] (AR v2)
Track 10 cannot be verified as accurate (confidence 2) [82FF475E], AccurateRip returned [0C809DC0] (AR v2)
Track 11 cannot be verified as accurate (confidence 2) [4C9F3D1F], AccurateRip returned [119B7174] (AR v2)
Track 12 cannot be verified as accurate (confidence 2) [3F81E3B2], AccurateRip returned [17EC50D0] (AR v2)
Track 13 cannot be verified as accurate (confidence 2) [5FD9339F], AccurateRip returned [DBD935B9] (AR v2)
Track 14 cannot be verified as accurate (confidence 2) [AA03456A], AccurateRip returned [DF54CF7D] (AR v2)
Track 15 cannot be verified as accurate (confidence 2) [647039D8], AccurateRip returned [36E0CE09] (AR v2)

1 трек(и) скопированы точно
14 трек(и) не удалось проверить на точность

Some tracks could not be verified as accurate

End of status report
[свернуть]

Файл CUE

REM GENRE Art-Rock
REM DISCID E3106E0F
REM COMMENT "ExactAudioCopy v1.3"
PERFORMER "10cc"
TITLE "The Things We Do For Love"
REM COMPOSER ""
FILE "10cc - The Things We Do For Love.flac" WAVE
TRACK 01 AUDIO
TITLE "Life Is A Minestrone"
PERFORMER "10cc"
REM COMPOSER ""
INDEX 01 00:00:00
TRACK 02 AUDIO
TITLE "I'm Not In Love"
PERFORMER "10cc"
REM COMPOSER ""
INDEX 00 04:27:28
INDEX 01 04:29:27
TRACK 03 AUDIO
TITLE "The Second Sitting For The Last Supper"
PERFORMER "10cc"
REM COMPOSER ""
INDEX 00 10:33:63
INDEX 01 10:35:62
TRACK 04 AUDIO
TITLE "Art For Arts Sake"
PERFORMER "10cc"
REM COMPOSER ""
INDEX 00 15:00:01
INDEX 01 15:02:00
TRACK 05 AUDIO
TITLE "I'm Mandy, Fly Me"
PERFORMER "10cc"
REM COMPOSER ""
INDEX 00 19:22:11
INDEX 01 19:24:10
TRACK 06 AUDIO
TITLE "Rock 'N' Roll Lullaby"
PERFORMER "10cc"
REM COMPOSER ""
INDEX 00 24:43:53
INDEX 01 24:45:52
TRACK 07 AUDIO
TITLE "Don't Hang Up"
PERFORMER "10cc"
REM COMPOSER ""
INDEX 00 28:45:11
INDEX 01 28:47:10
TRACK 08 AUDIO
TITLE "The Things We Do For Love"
PERFORMER "10cc"
REM COMPOSER ""
INDEX 00 35:05:68
INDEX 01 35:07:67
TRACK 09 AUDIO
TITLE "Good Morning Judge"
PERFORMER "10cc"
REM COMPOSER ""
INDEX 00 38:28:58
INDEX 01 38:30:57
TRACK 10 AUDIO
TITLE "People In Love"
PERFORMER "10cc"
REM COMPOSER ""
INDEX 00 41:24:51
INDEX 01 41:26:50
TRACK 11 AUDIO
TITLE "Dreadlock Holiday"
PERFORMER "10cc"
REM COMPOSER ""
INDEX 00 45:12:71
INDEX 01 45:14:70
TRACK 12 AUDIO
TITLE "For You And I"
PERFORMER "10cc"
REM COMPOSER ""
INDEX 00 50:15:13
INDEX 01 50:17:12
TRACK 13 AUDIO
TITLE "One-Two-Five"
PERFORMER "10cc"
REM COMPOSER ""
INDEX 00 55:35:63
INDEX 01 55:37:62
TRACK 14 AUDIO
TITLE "Don't Ask"
PERFORMER "10cc"
REM COMPOSER ""
INDEX 00 60:49:63
INDEX 01 60:51:62
TRACK 15 AUDIO
TITLE "Oomachasaooma (Feel The Love)"
PERFORMER "10cc"
REM COMPOSER ""
INDEX 00 64:53:73
INDEX 01 64:55:72
[свернуть]

Лог проверки качества

AUDIOCHECKER v2.0 beta (build 457) - by Dester - [Ссылки могут видеть только зарегистрированные и активированные пользователи.]
[Only registered and activated users can see links.]
~~~~~~~~~~~~~~~~~~~~~~~~~~~~~~~~~~
-=== НЕ РЕДАКТИРУЙТЕ ЭТОТ ФАЙЛ! ===-

Путь: ...\1990 - The Things We Do For Love [PHCR-4062]

1 -=- 10cc - The Things We Do For Love.flac -=- MPEG (95%)

60867924
[свернуть]

Спектр частот

[свернуть]

Скачать 10cc - The Things We Do For Love

[Ссылки могут видеть только зарегистрированные и активированные пользователи.]
[Only registered and activated users can see links.]

password: sergych
[свернуть]

Контрольная сумма (хеш-сумма) архива

MD5: 7d9d3a89ea16ed3d31cbd9270da03e03
[свернуть]
My opinion of release: 10/10
__________________
TAIFUN.Wings of Soul

Вверх
3 пользователя(ей) сказали cпасибо:
johnsilver (15.08.2019), swint68 (14.08.2019), TAIFUN (14.08.2019)
  #2
Старый 15.08.2019, 11:25
swint68
Меломан
Досье
 
Аватар для swint68
По умолчанию Re: 10cc - The Things We Do For Love

Большое спасибо!!!

Вверх
Похожие темы
Тема Автор Раздел Ответов Последнее сообщение
Сборник 10cc - The Best Of 10cc Live sergych Soft Rock 0 23.11.2013 20:17
Сингл 10cc - Woman In Love / Man With A Mission sergych Soft Rock 0 23.11.2013 19:10
Сборник 10cc - The Things We Do For Love sergych Soft Rock 0 20.05.2013 14:02
Релиз The Cutler - The Best Things In Life Aren't Things PUPOKIN IDM 0 19.11.2012 09:40
Альбом 10cc - 10cc PUPOKIN Soft Rock 1 06.10.2012 19:33


Метки
10cc , 1990 , art rock , progressive rock , rock , soft rock , the things we do for love

Опции темы

Ваши права в разделе
Вы не можете создавать новые темы
Вы не можете отвечать в темах
Вы не можете прикреплять вложения
Вы не можете редактировать свои сообщения

Быстрый переход




Текущее время: 08:41. Часовой пояс GMT +3.
Powered by vBulletin® Version 3.8.10
Copyright ©2000 - 2019, vBulletin Solutions, Inc. Перевод: zCarot
© 2008 - 2019 Taifun With Song
Яндекс.Метрика