TAIFUN With Song - качественная и редкая музыка
Навигация
Jazz и Blues Гибкая ритмика, импровизационное начало, гармонии и мелодии - все это Jazz. Blues - жизнеутверждающая музыка, рожденная из душевной боли

А знаете ли Вы, что...
Какой русский поп-певец имеет самую большую армию поклонников?
«Витас — самый популярный современный русский исполнитель в Китае, что ставит его на первое место среди всех русских исполнителей по общему числу поклонников в мире.»
 
Опции темы

  #1
Старый 23.06.2013, 14:53
sergych
Координатор
Досье
 
Аватар для sergych
Релиз Hugh Laurie - Let Them Talk


2011 - Hugh Laurie - Let Them Talk (Special Edition)




Исполнитель/Artist: Hugh Laurie
Альбом/Album: Let Them Talk (Special Edition)
Год/Year: 2011
Жанр/Genre: Blues
Страна/Country: EU
Рекорд-лейбл/Record label: Warner Music
Формат/Format: Free Lossless Audio Codec (*.flac)
Качество/Quality: Lossless
Тип рипа/RIP Type: tracks+.cue
Продолжительность/Length: 01:12:37 + 00:52:34
Источник/Source: Собственный рип
Размер/Size: 476.1 MB + 3.4 GB

Сканы в комплекте

Треклист

01. St James Infirmary [0:06:23.13]
02. You Don't Know My Mind [0:03:39.10]
03. Six Cold Feet [0:04:55.17]
04. Buddy Bolden's Blues [0:03:12.60]
05. Battle Of Jericho [0:03:47.45]
06. After You've Gone [0:04:09.11]
07. Swanee River [0:02:43.06]
08. The Whale Has Swallowed Me [0:03:37.04]
09. John Henry [0:03:34.36]
10. Police Dog Blues [0:03:33.01]
11. Tipitina [0:05:06.71]
12. Winin' Boy Blues [0:02:59.66]
13. They're Red Hot [0:01:11.74]
14. Baby Please Make A Change [0:04:57.59]
15. Let Them Talk [0:04:11.44]

Bonus Tracks:
16. Hallelujah, I Love Her So [0:03:08.45]
17. Crazy Arms [0:03:10.46]
18. Waiting For A Train [0:03:33.41]
19. You Don't Know My Mind - Live In Paris [0:04:41.54]
[свернуть]

youtube.com

[свернуть]

EAC лог

Exact Audio Copy V1.3 from 2. September 2016

EAC extraction logfile from 19. July 2019, 0:17

Hugh Laurie / Let Them Talk

Used drive : PIONEER DVD-RW DVR-220L Adapter: 1 ID: 0

Read mode : Secure
Utilize accurate stream : Yes
Defeat audio cache : Yes
Make use of C2 pointers : No

Read offset correction : 6
Overread into Lead-In and Lead-Out : No
Fill up missing offset samples with silence : Yes
Delete leading and trailing silent blocks : No
Null samples used in CRC calculations : Yes
Used interface : Installed external ASPI interface

Used output format : User Defined Encoder
Selected bitrate : 1024 kBit/s
Quality : High
Add ID3 tag : No
Command line compressor : C:\Program Files (x86)\Exact Audio Copy\Flac\flac.exe
Additional command line options : -6 -V -T "ARTIST=%artist%" -T "TITLE=%title%" -T "ALBUM=%albumtitle%" -T "DATE=%year%" -T "TRACKNUMBER=%tracknr%" -T "GENRE=%genre%" -T "COMMENT=%comment%" -T "BAND=%albuminterpret%" -T "ALBUMARTIST=%albuminterpret%" -T "COMPOSER=%composer%" %haslyrics%--tag-from-file=LYRICS="%lyricsfile%"%haslyrics% -T "DISCNUMBER=%cdnumber%" -T "TOTALDISCS=%totalcds%" -T "TOTALTRACKS=%numtracks%" %hascover%--picture="%coverfile%"%hascover% %source% -o %dest%


TOC of the extracted CD

Track | Start | Length | Start sector | End sector
---------------------------------------------------------
1 | 0:00.00 | 6:23.13 | 0 | 28737
2 | 6:23.13 | 3:39.10 | 28738 | 45172
3 | 10:02.23 | 4:55.17 | 45173 | 67314
4 | 14:57.40 | 3:12.60 | 67315 | 81774
5 | 18:10.25 | 3:47.45 | 81775 | 98844
6 | 21:57.70 | 4:09.11 | 98845 | 117530
7 | 26:07.06 | 2:43.06 | 117531 | 129761
8 | 28:50.12 | 3:37.04 | 129762 | 146040
9 | 32:27.16 | 3:34.36 | 146041 | 162126
10 | 36:01.52 | 3:33.01 | 162127 | 178102
11 | 39:34.53 | 5:06.71 | 178103 | 201123
12 | 44:41.49 | 2:59.66 | 201124 | 214614
13 | 47:41.40 | 1:11.74 | 214615 | 220013
14 | 48:53.39 | 4:57.59 | 220014 | 242347
15 | 53:51.23 | 4:11.44 | 242348 | 261216
16 | 58:02.67 | 3:08.45 | 261217 | 275361
17 | 61:11.37 | 3:10.46 | 275362 | 289657
18 | 64:22.08 | 3:33.41 | 289658 | 305673
19 | 67:55.49 | 4:41.54 | 305674 | 326802


Range status and errors

Selected range

Filename C:\mm\Hugh Laurie\2011 - Let Them Talk (Special Edition) [2564664003]\Hugh Laurie - Let Them Talk.wav

Peak level 98.8 %
Extraction speed 8.4 X
Range quality 100.0 %
Test CRC 606F4B17
Copy CRC 606F4B17
Copy OK

No errors occurred


AccurateRip summary

Track 1 accurately ripped (confidence 115) [8AB0A85E] (AR v2)
Track 2 accurately ripped (confidence 116) [5238438F] (AR v2)
Track 3 accurately ripped (confidence 116) [04E75FE2] (AR v2)
Track 4 accurately ripped (confidence 116) [3C202A2D] (AR v2)
Track 5 accurately ripped (confidence 116) [77A43F8B] (AR v2)
Track 6 accurately ripped (confidence 116) [07A3A144] (AR v2)
Track 7 accurately ripped (confidence 116) [99C089B4] (AR v2)
Track 8 accurately ripped (confidence 116) [4A84C43E] (AR v2)
Track 9 accurately ripped (confidence 116) [4A7D3BF3] (AR v2)
Track 10 accurately ripped (confidence 116) [3CC62161] (AR v2)
Track 11 accurately ripped (confidence 116) [4C12D4C2] (AR v2)
Track 12 accurately ripped (confidence 116) [0D0ABAB6] (AR v2)
Track 13 accurately ripped (confidence 116) [15EEA32F] (AR v2)
Track 14 accurately ripped (confidence 116) [AEB33438] (AR v2)
Track 15 accurately ripped (confidence 115) [DE3FB2E8] (AR v2)
Track 16 accurately ripped (confidence 117) [DB7CDBE9] (AR v2)
Track 17 accurately ripped (confidence 116) [27D03C6D] (AR v2)
Track 18 accurately ripped (confidence 116) [761A2218] (AR v2)
Track 19 accurately ripped (confidence 116) [8601FDA6] (AR v2)

All tracks accurately ripped

End of status report
[свернуть]

Файл CUE

REM GENRE Blues
REM DATE 2011
REM DISCID 39110513
REM COMMENT "ExactAudioCopy v1.3"
PERFORMER "Hugh Laurie"
TITLE "Let Them Talk"
REM COMPOSER ""
FILE "Hugh Laurie - Let Them Talk.flac" WAVE
TRACK 01 AUDIO
TITLE "St James Infirmary"
PERFORMER "Hugh Laurie"
REM COMPOSER ""
INDEX 01 00:00:00
TRACK 02 AUDIO
TITLE "You Don't Know My Mind"
PERFORMER "Hugh Laurie"
REM COMPOSER ""
INDEX 01 06:23:13
TRACK 03 AUDIO
TITLE "Six Cold Feet"
PERFORMER "Hugh Laurie"
REM COMPOSER ""
INDEX 01 10:02:23
TRACK 04 AUDIO
TITLE "Buddy Bolden's Blues"
PERFORMER "Hugh Laurie"
REM COMPOSER ""
INDEX 01 14:57:40
TRACK 05 AUDIO
TITLE "Battle Of Jericho"
PERFORMER "Hugh Laurie"
REM COMPOSER ""
INDEX 01 18:10:25
TRACK 06 AUDIO
TITLE "After You've Gone"
PERFORMER "Hugh Laurie"
REM COMPOSER ""
INDEX 01 21:57:70
TRACK 07 AUDIO
TITLE "Swanee River"
PERFORMER "Hugh Laurie"
REM COMPOSER ""
INDEX 01 26:07:06
TRACK 08 AUDIO
TITLE "The Whale Has Swallowed Me"
PERFORMER "Hugh Laurie"
REM COMPOSER ""
INDEX 01 28:50:12
TRACK 09 AUDIO
TITLE "John Henry"
PERFORMER "Hugh Laurie"
REM COMPOSER ""
INDEX 01 32:27:16
TRACK 10 AUDIO
TITLE "Police Dog Blues"
PERFORMER "Hugh Laurie"
REM COMPOSER ""
INDEX 01 36:01:52
TRACK 11 AUDIO
TITLE "Tipitina"
PERFORMER "Hugh Laurie"
REM COMPOSER ""
INDEX 01 39:34:53
TRACK 12 AUDIO
TITLE "Winin' Boy Blues"
PERFORMER "Hugh Laurie"
REM COMPOSER ""
INDEX 01 44:41:49
TRACK 13 AUDIO
TITLE "They're Red Hot"
PERFORMER "Hugh Laurie"
REM COMPOSER ""
INDEX 01 47:41:40
TRACK 14 AUDIO
TITLE "Baby Please Make A Change"
PERFORMER "Hugh Laurie"
REM COMPOSER ""
INDEX 01 48:53:39
TRACK 15 AUDIO
TITLE "Let Them Talk"
PERFORMER "Hugh Laurie"
REM COMPOSER ""
INDEX 01 53:51:23
TRACK 16 AUDIO
TITLE "Hallelujah, I Love Her So"
PERFORMER "Hugh Laurie"
REM COMPOSER ""
INDEX 01 58:02:67
TRACK 17 AUDIO
TITLE "Crazy Arms"
PERFORMER "Hugh Laurie"
REM COMPOSER ""
INDEX 01 61:11:37
TRACK 18 AUDIO
TITLE "Waiting For A Train"
PERFORMER "Hugh Laurie"
REM COMPOSER ""
INDEX 01 64:22:08
TRACK 19 AUDIO
TITLE "You Don't Know My Mind - Live In Paris"
PERFORMER "Hugh Laurie"
REM COMPOSER ""
INDEX 01 67:55:49
[свернуть]

Лог проверки качества

AUDIOCHECKER v2.0 beta (build 457) - by Dester - [Ссылки могут видеть только зарегистрированные и активированные пользователи.]
[Only registered and activated users can see links.]
~~~~~~~~~~~~~~~~~~~~~~~~~~~~~~~~~~
-=== НЕ РЕДАКТИРУЙТЕ ЭТОТ ФАЙЛ! ===-

Путь: ...\2011 - Let Them Talk (Special Edition) [2564664003]

1 -=- Hugh Laurie - Let Them Talk.flac -=- CDDA (100%)

235714660
[свернуть]

Спектр частот

[свернуть]

Скачать Hugh Laurie - Let Them Talk

[Ссылки могут видеть только зарегистрированные и активированные пользователи.]
[Only registered and activated users can see links.]

password: sergych

[Ссылки могут видеть только зарегистрированные и активированные пользователи.]
[Only registered and activated users can see links.]
[свернуть]
My opinion of release: 10/10

Release info RInfo

Дебютный альбом английского актёра и, как можно судить по данному альбому, отличного блюзмена Hugh Laurie (значительно более известного по главной роли в сериале "Доктор Хаус").
Представленный альбом Special Edition, дополнен 4-мя треками и диском DVD (образ iso в отдельной ссылке) с видеоматериалами поездки и выступлениями музыканта в Нью-Орлеане.
__________________
TAIFUN.Wings of Soul


Последний раз редактировалось sergych, 27.07.2019 в 12:10. Причина: большое изменение в релизе
Вверх
4 пользователя(ей) сказали cпасибо:
aheron (23.06.2013), johnsilver (28.07.2019), swint68 (29.07.2019), TAIFUN (23.06.2013)
  #2
Старый 27.07.2019, 12:12
sergych
Координатор
Досье
 
Аватар для sergych
По умолчанию Re: Hugh Laurie - Let Them Talk

Заменил потрековый рип образом, обновил сканы, добавил ссылку на 2-й диск релиза, добавил ссылку на deezer
__________________
TAIFUN.Wings of Soul

Вверх
2 пользователя(ей) сказали cпасибо:
johnsilver (28.07.2019), TAIFUN (30.07.2019)
  #3
Старый 28.07.2019, 10:09
johnsilver
Меломан
Досье
 
Аватар для johnsilver
По умолчанию Re: Hugh Laurie - Let Them Talk

Давно искал эту версию в полной комплектации... Спасибо большое!

Вверх
Пользователь сказал cпасибо:
sergych (28.07.2019)
  #4
Старый 28.07.2019, 11:43
sergych
Координатор
Досье
 
Аватар для sergych
По умолчанию Re: Hugh Laurie - Let Them Talk

johnsilver, Так-то я видео не занимаюсь, потому изначально релиз был без dvd, а коль скоро дошли руки переделать рип, то и видео соОБРАЗил А руки ещё долго могли не дойти, если бы сериал не стали повторять на ТВ. Это я всё к тому, что давно нужно было спросить
__________________
TAIFUN.Wings of Soul

Вверх
Пользователь сказал cпасибо:
johnsilver (28.07.2019)
  #5
Старый 28.07.2019, 12:53
johnsilver
Меломан
Досье
 
Аватар для johnsilver
По умолчанию Re: Hugh Laurie - Let Them Talk

Честно говоря, я изначально забыл здесь поискать этот релиз. Как раз, DVD из этого релиза у меня был, а вот 19-ти трековую версию альбома найти не удавалось. В любом случае, спасибо за то что обновили релиз, особенно за новый рип образом с CD, с "родными" сканами!

Вверх
Пользователь сказал cпасибо:
sergych (28.07.2019)
Похожие темы
Тема Автор Раздел Ответов Последнее сообщение
Релиз Hugh Laurie - Didn't It Rain sergych Jazz и Blues 1 25.07.2019 21:32
Релиз HeadCat - Walk The Walk...Talk The Talk PUPOKIN Rock`n`Roll 0 01.02.2012 09:36
Релиз Big Talk – Big Talk PUPOKIN Indie Rock 0 22.07.2011 09:48
Релиз Laurie Morvan Band - Fire It Up PUPOKIN Blues Rock 0 08.12.2009 12:19


Метки
2011 , blues , hugh laurie , let them talk (special edition)

Опции темы

Ваши права в разделе
Вы не можете создавать новые темы
Вы не можете отвечать в темах
Вы не можете прикреплять вложения
Вы не можете редактировать свои сообщения

Быстрый переход




Текущее время: 08:45. Часовой пояс GMT +3.
Powered by vBulletin® Version 3.8.10
Copyright ©2000 - 2019, vBulletin Solutions, Inc. Перевод: zCarot
© 2008 - 2019 Taifun With Song
Яндекс.Метрика