TAIFUN With Song - качественная и редкая музыка
Навигация
Jazz и Blues Гибкая ритмика, импровизационное начало, гармонии и мелодии - все это Jazz. Blues - жизнеутверждающая музыка, рожденная из душевной боли

А знаете ли Вы, что...
Какая группа выпустила ремейк антивоенной песни, переделав текст в прославляющий армию?
«Песня братьев Болландов «In the Army Now» получила всемирную известность в исполнении группы «Status Quo». Изначально это была антивоенная песня, однако в 2010 году музыканты выпустили ремейк, сделав её военно-патриотической и переписав все обличающие фрагменты текста. Так, «Дядя Сэм постарался на славу» превратилось в «Сейчас нужно сделать всё, что в твоих силах». А после строчки «Твой палец на спусковом крючке» вместо «Но, кажется, это неправильно» стало «Теперь время сражаться». Доходы от продажи сингла, по заверениям группы, должны были пойти в пользу организаций, помогающих раненным и реабилитирующих бывших военных.»
 
Опции темы

  #1
Старый 22.06.2013, 18:19
sergych
Координатор
Досье
 
Аватар для sergych
Релиз Hugh Laurie - Didn't It Rain


2013 - Hugh Laurie - Didn't It Rain




Исполнитель/Artist: Hugh Laurie
Альбом/Album: Didn't It Rain
Год/Year: 2013
Жанр/Genre: Blues, Jazz, Rhythm and Blues, Tango
Страна/Country: Германия
Рекорд-лейбл/Record label: Warner Music
Дата записи/Recording date: 01.2013
Формат/Format: Free Lossless Audio Codec (*.flac)
Качество/Quality: Lossless
Тип рипа/RIP Type: image+.cue
Продолжительность/Length: 00:52:51
Источник/Source: Собственный рип
Размер/Size: 354.3 MB

Сканы в комплекте

Треклист

01. The St. Louis Blues [0:04:21.12]
02. Junkers Blues [0:02:55.55]
03. Kiss Of Fire [0:03:27.18]
04. Vicksburg Blues [0:04:28.69]
05. The Weed Smoker's Dream [0:04:17.54]
06. Wild Honey [0:04:20.63]
07. Send Me To The 'Lectric Chair [0:05:26.46]
08. Evenin' [0:03:03.17]
09. Didn't It Rain [0:02:52.26]
10. Careless Love [0:05:21.08]
11. One For My Baby [0:04:00.18]
12. I Hate A Man Like You [0:04:17.64]
13. Changes [0:03:58.31]
[свернуть]

youtube.com

[свернуть]

EAC лог

Exact Audio Copy V1.3 from 2. September 2016

EAC extraction logfile from 18. July 2019, 23:41

Hugh Laurie / Didn't It Rain

Used drive : PIONEER DVD-RW DVR-220L Adapter: 1 ID: 0

Read mode : Secure
Utilize accurate stream : Yes
Defeat audio cache : Yes
Make use of C2 pointers : No

Read offset correction : 6
Overread into Lead-In and Lead-Out : No
Fill up missing offset samples with silence : Yes
Delete leading and trailing silent blocks : No
Null samples used in CRC calculations : Yes
Used interface : Installed external ASPI interface

Used output format : User Defined Encoder
Selected bitrate : 1024 kBit/s
Quality : High
Add ID3 tag : No
Command line compressor : C:\Program Files (x86)\Exact Audio Copy\Flac\flac.exe
Additional command line options : -6 -V -T "ARTIST=%artist%" -T "TITLE=%title%" -T "ALBUM=%albumtitle%" -T "DATE=%year%" -T "TRACKNUMBER=%tracknr%" -T "GENRE=%genre%" -T "COMMENT=%comment%" -T "BAND=%albuminterpret%" -T "ALBUMARTIST=%albuminterpret%" -T "COMPOSER=%composer%" %haslyrics%--tag-from-file=LYRICS="%lyricsfile%"%haslyrics% -T "DISCNUMBER=%cdnumber%" -T "TOTALDISCS=%totalcds%" -T "TOTALTRACKS=%numtracks%" %hascover%--picture="%coverfile%"%hascover% %source% -o %dest%


TOC of the extracted CD

Track | Start | Length | Start sector | End sector
---------------------------------------------------------
1 | 0:00.00 | 4:21.12 | 0 | 19586
2 | 4:21.12 | 2:55.55 | 19587 | 32766
3 | 7:16.67 | 3:27.18 | 32767 | 48309
4 | 10:44.10 | 4:28.69 | 48310 | 68478
5 | 15:13.04 | 4:17.54 | 68479 | 87807
6 | 19:30.58 | 4:20.63 | 87808 | 107370
7 | 23:51.46 | 5:26.46 | 107371 | 131866
8 | 29:18.17 | 3:03.17 | 131867 | 145608
9 | 32:21.34 | 2:52.26 | 145609 | 158534
10 | 35:13.60 | 5:21.08 | 158535 | 182617
11 | 40:34.68 | 4:00.18 | 182618 | 200635
12 | 44:35.11 | 4:17.64 | 200636 | 219974
13 | 48:53.00 | 3:58.31 | 219975 | 237855


Range status and errors

Selected range

Filename C:\mm\Hugh Laurie\2013 - Didn't It Rain [5053105713721]\Hugh Laurie - Didn't It Rain.wav

Peak level 97.7 %
Extraction speed 4.3 X
Range quality 100.0 %
Test CRC 673A5587
Copy CRC 673A5587
Copy OK

No errors occurred


AccurateRip summary

Track 1 accurately ripped (confidence 200) [31277F41] (AR v2)
Track 2 accurately ripped (confidence 200) [7B24B044] (AR v2)
Track 3 accurately ripped (confidence 200) [E8100175] (AR v2)
Track 4 accurately ripped (confidence 200) [8DE91B92] (AR v2)
Track 5 accurately ripped (confidence 200) [C5321F83] (AR v2)
Track 6 accurately ripped (confidence 200) [A35AC6C0] (AR v2)
Track 7 accurately ripped (confidence 200) [A9FEC51F] (AR v2)
Track 8 accurately ripped (confidence 200) [6CD12781] (AR v2)
Track 9 accurately ripped (confidence 200) [8C7A5C2E] (AR v2)
Track 10 accurately ripped (confidence 200) [ACEA557F] (AR v2)
Track 11 accurately ripped (confidence 200) [17E27B8B] (AR v2)
Track 12 accurately ripped (confidence 200) [6C42CE47] (AR v2)
Track 13 accurately ripped (confidence 200) [EF2D6C93] (AR v2)

All tracks accurately ripped

End of status report
[свернуть]

Файл CUE

REM GENRE Blues
REM DATE 2013
REM DISCID B10C630D
REM COMMENT "ExactAudioCopy v1.3"
PERFORMER "Hugh Laurie"
TITLE "Didn't It Rain"
REM COMPOSER ""
FILE "Hugh Laurie - Didn't It Rain.flac" WAVE
TRACK 01 AUDIO
TITLE "The St. Louis Blues"
PERFORMER "Hugh Laurie"
REM COMPOSER ""
INDEX 01 00:00:00
TRACK 02 AUDIO
TITLE "Junkers Blues"
PERFORMER "Hugh Laurie"
REM COMPOSER ""
INDEX 01 04:21:12
TRACK 03 AUDIO
TITLE "Kiss Of Fire"
PERFORMER "Hugh Laurie"
REM COMPOSER ""
INDEX 01 07:16:67
TRACK 04 AUDIO
TITLE "Vicksburg Blues"
PERFORMER "Hugh Laurie"
REM COMPOSER ""
INDEX 01 10:44:10
TRACK 05 AUDIO
TITLE "The Weed Smoker's Dream"
PERFORMER "Hugh Laurie"
REM COMPOSER ""
INDEX 01 15:13:04
TRACK 06 AUDIO
TITLE "Wild Honey"
PERFORMER "Hugh Laurie"
REM COMPOSER ""
INDEX 01 19:30:58
TRACK 07 AUDIO
TITLE "Send Me To The 'Lectric Chair"
PERFORMER "Hugh Laurie"
REM COMPOSER ""
INDEX 01 23:51:46
TRACK 08 AUDIO
TITLE "Evenin'"
PERFORMER "Hugh Laurie"
REM COMPOSER ""
INDEX 01 29:18:17
TRACK 09 AUDIO
TITLE "Didn't It Rain"
PERFORMER "Hugh Laurie"
REM COMPOSER ""
INDEX 01 32:21:34
TRACK 10 AUDIO
TITLE "Careless Love"
PERFORMER "Hugh Laurie"
REM COMPOSER ""
INDEX 01 35:13:60
TRACK 11 AUDIO
TITLE "One For My Baby"
PERFORMER "Hugh Laurie"
REM COMPOSER ""
INDEX 01 40:34:68
TRACK 12 AUDIO
TITLE "I Hate A Man Like You"
PERFORMER "Hugh Laurie"
REM COMPOSER ""
INDEX 01 44:35:11
TRACK 13 AUDIO
TITLE "Changes"
PERFORMER "Hugh Laurie"
REM COMPOSER ""
INDEX 01 48:53:00
[свернуть]

Лог проверки качества

AUDIOCHECKER v2.0 beta (build 457) - by Dester - [Ссылки могут видеть только зарегистрированные и активированные пользователи.]
[Only registered and activated users can see links.]
~~~~~~~~~~~~~~~~~~~~~~~~~~~~~~~~~~
-=== НЕ РЕДАКТИРУЙТЕ ЭТОТ ФАЙЛ! ===-

Путь: ...\2013 - Didn't It Rain [5053105713721]

1 -=- Hugh Laurie - Didn't It Rain.flac -=- CDDA (100%)

246440580
[свернуть]

Спектр частот

[свернуть]

Скачать Hugh Laurie - Didn't It Rain


[Ссылки могут видеть только зарегистрированные и активированные пользователи.]
[Only registered and activated users can see links.]

password: sergych
[свернуть]

Контрольная сумма (хеш-сумма) архива

MD5: d0f8f79f06dcc3d058adcb2ecd82d47c
[свернуть]
My opinion of release: 10/10

Release info RInfo

Я долго смеялся, читая перечисление инструментов, используемых участвующими музыкантами. К примеру: "Jay Bellerose - drums, percussion, aromatic tobbaccos или Kevin Breit - ...., optimism, ...". Специально не стал перечислять всех и всё, оставляя желающим возможность прочесть самим на последнем развороте буклета.
И о музыке - при втором прослушивании альбом мне понравился даже больше, чем в первый раз
__________________
TAIFUN.Wings of Soul


Последний раз редактировалось sergych, 27.07.2019 в 10:51. Причина: добавил deezer
Вверх
2 пользователя(ей) сказали cпасибо:
aheron (23.06.2013), swint68 (01.08.2019)
  #2
Старый 25.07.2019, 20:32
sergych
Координатор
Досье
 
Аватар для sergych
По умолчанию Re: Hugh Laurie - Didn't It Rain

заменил потрековый рип образом, новые сканы с разрешением 600dpi
__________________
TAIFUN.Wings of Soul

Вверх
Пользователь сказал cпасибо:
TAIFUN (26.07.2019)
Похожие темы
Тема Автор Раздел Ответов Последнее сообщение
Альбом Burning Rain - Burning Rain aheron Hard Rock 0 29.05.2013 02:47
Релиз City Rain - City Rain PUPOKIN Club & Electronic Music 0 08.12.2011 09:01
Релиз Laurie Morvan Band - Fire It Up PUPOKIN Blues Rock 0 08.12.2009 11:19
Альбом G.E.N.E. - Rain Forest LUСIAN New age 0 06.04.2009 22:24


Метки
2013 , blues , didn't it rain , hugh laurie , jazz , rhythm and blues , tango

Опции темы

Ваши права в разделе
Вы не можете создавать новые темы
Вы не можете отвечать в темах
Вы не можете прикреплять вложения
Вы не можете редактировать свои сообщения

Быстрый переход




Текущее время: 01:17. Часовой пояс GMT +3.
Powered by vBulletin® Version 3.8.10
Copyright ©2000 - 2019, vBulletin Solutions, Inc. Перевод: zCarot
© 2008 - 2019 Taifun With Song
Яндекс.Метрика