TAIFUN With Song
Навигация
Вернуться   TAIFUN With Song > Music (обменник) > Rock > Pop Rock
Расширенный поиск
Pop Rock Поп-рок — жанр музыки, объединяющий элементы поп-музыки и рок-музыки. Песни характеризуются простой структурой, запоминающимися мелодиями, повторением музыкальных фраз (от попа), использованием в качестве основных инструментов электрогитар и ударных и агрессивным настроением (от рока).

А знаете ли Вы, что...
В какую группу взяли гитариста главным образом для того, чтобы он мог покупать спиртное остальным музыкантам?
«Когда Декстер Холланд и Грег Крисел, будучи учениками выпускного класса школы, создали группу Offspring, они пригласили в неё гитариста Кевина «Нудлс» Вассермана. Тот был старше на три года, работал школьным уборщиком и уже имел опыт игры в рок-группе. Но главной причиной приглашения стало то, что Вассерман был совершеннолетним и мог покупать спиртное Холланду и Криселу.»
 
Опции темы

  #1
Старый 09.05.2014, 19:26
sergych
Координатор
Досье
 
Аватар для sergych
Релиз Chris Isaak - San Francisco Days


1993 - Chris Isaak - San Francisco Days




Исполнитель/Artist: Chris Isaak
Альбом/Album: San Francisco Days
Год/Year: 1993
Жанр/Genre: Rock and roll, rockabilly, roots rock
Страна/Country: Соединённые Штаты
Рекорд-лейбл/Record label: Reprise Records
Номер в каталоге/Catalogue #: 9 45116-2
Формат/Format: Free Lossless Audio Codec (*.flac)
Качество/Quality: Lossless
Тип рипа/RIP Type: image+.cue
Продолжительность/Length: 00:41:43
Источник/Source: Собственный рип
Размер/Size: 291.2 MB

Сканы в комплекте

Треклист

01. San Francisco Days [0:02:58.73]
02. Beautiful Homes [0:03:49.45]
03. Round 'n' Round [0:04:27.00]
04. Two Hearts [0:03:34.45]
05. Can't Do a Thing (To Stop Me) [0:03:39.42]
06. Except the New Girl [0:03:21.10]
07. Waiting [0:03:41.48]
08. Move Along [0:04:03.15]
09. I Want Your Love [0:03:10.22]
10. 5:15 [0:03:10.50]
11. Lonely With a Broken Heart [0:03:09.70]
12. Solitary Man [0:02:37.18]
[свернуть]

youtube.com

[свернуть]

Исполнители/Performers

Chris Isaak - vocals, guitar
James Calvin Wilsey - guitar
Rowland Salley - bass, vocals
Kenney Dale Johnson - drums, vocals
Jimmy Pugh - Hammond B3 organ on "I Want Your Love"
Danny Gatton - Guitar
Jeff Watson - Guitar
[свернуть]

EAC лог

Exact Audio Copy V1.0 beta 3 from 29. August 2011

EAC extraction logfile from 9. May 2014, 14:59

Chris Isaak / San Francisco Days

Used drive : ATAPI iHAS124 D Adapter: 0 ID: 2

Read mode : Secure
Utilize accurate stream : Yes
Defeat audio cache : Yes
Make use of C2 pointers : No

Read offset correction : 6
Overread into Lead-In and Lead-Out : No
Fill up missing offset samples with silence : Yes
Delete leading and trailing silent blocks : No
Null samples used in CRC calculations : Yes
Used interface : Installed external ASPI interface

Used output format : User Defined Encoder
Selected bitrate : 1024 kBit/s
Quality : High
Add ID3 tag : No
Command line compressor : C:\Program Files (x86)\Exact Audio Copy\Flac\flac.exe
Additional command line options : -6 -V -T "ARTIST=%artist%" -T "TITLE=%title%" -T "ALBUM=%albumtitle%" -T "DATE=%year%" -T "TRACKNUMBER=%tracknr%" -T "GENRE=%genre%" -T "COMMENT=%comment%" -T "BAND=%albuminterpret%" -T "COMPOSER=%composer%" %haslyrics%--tag-from-file=LYRICS="%lyricsfile%"%haslyrics% -T "DISCNUMBER=%cdnumber%" -T "TOTALDISCS=%totalcds%" -T "TOTALTRACKS=%numtracks%" %hascover%--picture="%coverfile%"%hascover% %source% -o %dest%


TOC of the extracted CD

Track | Start | Length | Start sector | End sector
---------------------------------------------------------
1 | 0:00.32 | 2:58.73 | 32 | 13454
2 | 2:59.30 | 3:49.45 | 13455 | 30674
3 | 6:49.00 | 4:27.00 | 30675 | 50699
4 | 11:16.00 | 3:34.45 | 50700 | 66794
5 | 14:50.45 | 3:39.42 | 66795 | 83261
6 | 18:30.12 | 3:21.10 | 83262 | 98346
7 | 21:51.22 | 3:41.48 | 98347 | 114969
8 | 25:32.70 | 4:03.15 | 114970 | 133209
9 | 29:36.10 | 3:10.22 | 133210 | 147481
10 | 32:46.32 | 3:10.50 | 147482 | 161781
11 | 35:57.07 | 3:09.70 | 161782 | 176026
12 | 39:07.02 | 2:37.18 | 176027 | 187819


Range status and errors

Selected range

Filename C:\mm\Chris Isaak\1993 - San Francisco Days [9 45116-2]\Chris Isaak - San Francisco Days.wav

Peak level 98.4 %
Extraction speed 3.1 X
Range quality 99.9 %
Test CRC 9FA4DF33
Copy CRC 9FA4DF33
Copy OK

No errors occurred


AccurateRip summary

Track 1 accurately ripped (confidence 42) [5291DCCB] (AR v2)
Track 2 accurately ripped (confidence 42) [1FF8A6F4] (AR v2)
Track 3 accurately ripped (confidence 42) [FC5613B5] (AR v2)
Track 4 accurately ripped (confidence 41) [DF1FA7F3] (AR v2)
Track 5 accurately ripped (confidence 42) [84DDD69C] (AR v2)
Track 6 accurately ripped (confidence 43) [EE3F1940] (AR v2)
Track 7 accurately ripped (confidence 43) [79F2B84B] (AR v2)
Track 8 accurately ripped (confidence 43) [C3144718] (AR v2)
Track 9 accurately ripped (confidence 43) [28978390] (AR v2)
Track 10 accurately ripped (confidence 43) [141834AE] (AR v2)
Track 11 accurately ripped (confidence 43) [4A985CFC] (AR v2)
Track 12 accurately ripped (confidence 43) [43E1FA9F] (AR v2)

All tracks accurately ripped

End of status report
[свернуть]

Файл CUE

REM GENRE Rock
REM DATE 1993
REM DISCID A609C80C
REM COMMENT "ExactAudioCopy v1.0b3"
PERFORMER "Chris Isaak"
TITLE "San Francisco Days"
FILE "Chris Isaak - San Francisco Days.flac" WAVE
TRACK 01 AUDIO
TITLE "San Francisco Days"
PERFORMER "Chris Isaak"
INDEX 00 00:00:00
INDEX 01 00:00:32
TRACK 02 AUDIO
TITLE "Beautiful Homes"
PERFORMER "Chris Isaak"
INDEX 00 02:59:08
INDEX 01 02:59:30
TRACK 03 AUDIO
TITLE "Round 'n' Round"
PERFORMER "Chris Isaak"
INDEX 01 06:49:00
TRACK 04 AUDIO
TITLE "Two Hearts"
PERFORMER "Chris Isaak"
INDEX 00 11:14:30
INDEX 01 11:16:00
TRACK 05 AUDIO
TITLE "Can't Do a Thing (To Stop Me)"
PERFORMER "Chris Isaak"
INDEX 00 14:49:40
INDEX 01 14:50:45
TRACK 06 AUDIO
TITLE "Except the New Girl"
PERFORMER "Chris Isaak"
INDEX 00 18:28:70
INDEX 01 18:30:12
TRACK 07 AUDIO
TITLE "Waiting"
PERFORMER "Chris Isaak"
INDEX 00 21:51:15
INDEX 01 21:51:22
TRACK 08 AUDIO
TITLE "Move Along"
PERFORMER "Chris Isaak"
INDEX 00 25:32:63
INDEX 01 25:32:70
TRACK 09 AUDIO
TITLE "I Want Your Love"
PERFORMER "Chris Isaak"
INDEX 00 29:33:70
INDEX 01 29:36:10
TRACK 10 AUDIO
TITLE "5:15"
PERFORMER "Chris Isaak"
INDEX 00 32:45:23
INDEX 01 32:46:32
TRACK 11 AUDIO
TITLE "Lonely With a Broken Heart"
PERFORMER "Chris Isaak"
INDEX 00 35:56:08
INDEX 01 35:57:07
TRACK 12 AUDIO
TITLE "Solitary Man"
PERFORMER "Chris Isaak"
INDEX 00 39:05:38
INDEX 01 39:07:02
[свернуть]

Лог проверки качества

AUDIOCHECKER v2.0 beta (build 457) - by Dester - [Ссылки могут видеть только зарегистрированные и активированные пользователи.]
[Only registered and activated users can see links.]
~~~~~~~~~~~~~~~~~~~~~~~~~~~~~~~~~~
-=== НЕ РЕДАКТИРУЙТЕ ЭТОТ ФАЙЛ! ===-

Путь: ...\1993 - San Francisco Days [9 45116-2]

1 -=- Chris Isaak - San Francisco Days.flac -=- CDDA (99%)

151639700
[свернуть]

Спектр частот

[свернуть]

Скачать Chris Isaak - San Francisco Days

[Ссылки могут видеть только зарегистрированные и активированные пользователи.]
[Only registered and activated users can see links.]

password: sergych
[свернуть]
My opinion of release: 9/10
__________________
TAIFUN.Wings of Soul

Вверх
Пользователь сказал cпасибо:
vovan70 (13.09.2017)
Похожие темы
Тема Автор Раздел Ответов Последнее сообщение
Альбом Chris Isaak - Heart Shaped World sergych Pop Rock 3 17.01.2017 23:55
Альбом Chris Isaak - Always Got Tonight sergych Pop Rock 0 05.05.2014 23:18
Альбом Chris Isaak - Forever Blue sergych Зарубежная Поп-Музыка 0 01.12.2013 18:34
Релиз Chris Isaak - Mr. Lucky PUPOKIN Зарубежная Поп-Музыка 0 21.04.2009 17:37
Релиз Young Chris - 30 Days, 30 Verses PUPOKIN Зарубежный 0 03.01.2009 14:00


Метки
1993 , chris isaak , rock and roll , rockabilly , roots rock , san francisco days

Опции темы

Ваши права в разделе
Вы не можете создавать новые темы
Вы не можете отвечать в темах
Вы не можете прикреплять вложения
Вы не можете редактировать свои сообщения

Быстрый переход



Текущее время: 00:43. Часовой пояс GMT +3.
Powered by vBulletin® Version 3.8.10
Copyright ©2000 - 2019, vBulletin Solutions, Inc. Перевод: zCarot
© 2008 - 2019 Taifun With Song
Яндекс.Метрика