TAIFUN With Song
Навигация
Вернуться   TAIFUN With Song > Music (обменник) > Rock > Pop Rock
Расширенный поиск
Pop Rock Поп-рок — жанр музыки, объединяющий элементы поп-музыки и рок-музыки. Песни характеризуются простой структурой, запоминающимися мелодиями, повторением музыкальных фраз (от попа), использованием в качестве основных инструментов электрогитар и ударных и агрессивным настроением (от рока).

А знаете ли Вы, что...
В каком стиле играет группа, вокалистом которой является попугай?
«Единственная в мире группа, вокалистом которой является птица — попугай по кличке Вальдо, играет в стиле дэт-метал и называется Hatebeak. К настоящему времени группа выпустила три альбома, однако проект существует только в студии и концертов не даёт. Второй альбом Hatebeak записали с дэтграйнд-коллективом Caninus, в котором солировали два питбультерьера.»
 
Опции темы

  #1
Старый 05.05.2014, 23:18
sergych
Координатор
Досье
 
Аватар для sergych
Релиз Chris Isaak - Always Got Tonight


2002 - Chris Isaak - Always Got Tonight




Исполнитель/Artist: Chris Isaak
Альбом/Album: Always Got Tonight
Год/Year: 2002
Жанр/Genre: pop rock, rock & roll, rockabilly
Страна/Country: Соединённые Штаты
Рекорд-лейбл/Record label: Reprise Records
Номер в каталоге/Catalogue #: 9 48016-2
Формат/Format: Free Lossless Audio Codec (*.flac)
Качество/Quality: Lossless
Тип рипа/RIP Type: image+.cue
Продолжительность/Length: 00:43:51
Источник/Source: Собственный рип
Размер/Size: 357.7 MB

Сканы в комплекте

Треклист

01. One Day [0:04:26.65]
02. Let Me Down Easy [0:04:08.72]
03. Worked It Out Wrong [0:03:48.65]
04. Courthouse [0:03:21.25]
05. Life Will Go On [0:03:07.73]
06. Always Got Tonight [0:03:50.30]
07. Cool Love [0:03:45.32]
08. Notice the Ring [0:03:47.70]
09. I See You Everywhere [0:03:23.05]
10. American Boy [0:02:51.55]
11. Somebody To Love [0:02:36.48]
12. Nothing To Say [0:04:41.62]
[свернуть]

youtube.com

[свернуть]

EAC лог

Exact Audio Copy V1.0 beta 3 from 29. August 2011

EAC extraction logfile from 5. May 2014, 20:47

Chris Isaak / Always Got Tonight

Used drive : ATAPI iHAS124 D Adapter: 0 ID: 2

Read mode : Secure
Utilize accurate stream : Yes
Defeat audio cache : Yes
Make use of C2 pointers : No

Read offset correction : 6
Overread into Lead-In and Lead-Out : No
Fill up missing offset samples with silence : Yes
Delete leading and trailing silent blocks : No
Null samples used in CRC calculations : Yes
Used interface : Installed external ASPI interface

Used output format : User Defined Encoder
Selected bitrate : 1024 kBit/s
Quality : High
Add ID3 tag : No
Command line compressor : C:\Program Files (x86)\Exact Audio Copy\Flac\flac.exe
Additional command line options : -6 -V -T "ARTIST=%artist%" -T "TITLE=%title%" -T "ALBUM=%albumtitle%" -T "DATE=%year%" -T "TRACKNUMBER=%tracknr%" -T "GENRE=%genre%" -T "COMMENT=%comment%" -T "BAND=%albuminterpret%" -T "COMPOSER=%composer%" %haslyrics%--tag-from-file=LYRICS="%lyricsfile%"%haslyrics% -T "DISCNUMBER=%cdnumber%" -T "TOTALDISCS=%totalcds%" -T "TOTALTRACKS=%numtracks%" %hascover%--picture="%coverfile%"%hascover% %source% -o %dest%


TOC of the extracted CD

Track | Start | Length | Start sector | End sector
---------------------------------------------------------
1 | 0:00.00 | 4:26.65 | 0 | 20014
2 | 4:26.65 | 4:08.72 | 20015 | 38686
3 | 8:35.62 | 3:48.65 | 38687 | 55851
4 | 12:24.52 | 3:21.25 | 55852 | 70951
5 | 15:46.02 | 3:07.73 | 70952 | 85049
6 | 18:54.00 | 3:50.30 | 85050 | 102329
7 | 22:44.30 | 3:45.32 | 102330 | 119236
8 | 26:29.62 | 3:47.70 | 119237 | 136331
9 | 30:17.57 | 3:23.05 | 136332 | 151561
10 | 33:40.62 | 2:51.55 | 151562 | 164441
11 | 36:32.42 | 2:36.48 | 164442 | 176189
12 | 39:09.15 | 4:41.62 | 176190 | 197326


Range status and errors

Selected range

Filename C:\mm\Chris Isaak\2002 - Always Got Tonight [9 48016-2]\Chris Isaak - Always Got Tonight.wav

Peak level 100.0 %
Extraction speed 8.7 X
Range quality 100.0 %
Test CRC 46CED0F8
Copy CRC 46CED0F8
Copy OK

No errors occurred


AccurateRip summary

Track 1 accurately ripped (confidence 49) [AD32A6AC] (AR v2)
Track 2 accurately ripped (confidence 49) [1ADF5540] (AR v2)
Track 3 accurately ripped (confidence 48) [6F509FCC] (AR v2)
Track 4 accurately ripped (confidence 49) [3FA18639] (AR v2)
Track 5 accurately ripped (confidence 48) [73E4A653] (AR v2)
Track 6 accurately ripped (confidence 49) [BEB8F6F0] (AR v2)
Track 7 accurately ripped (confidence 48) [FB87185C] (AR v2)
Track 8 accurately ripped (confidence 49) [F93AD86F] (AR v2)
Track 9 accurately ripped (confidence 48) [D657DEAB] (AR v2)
Track 10 accurately ripped (confidence 49) [F52D94C7] (AR v2)
Track 11 accurately ripped (confidence 49) [101C357A] (AR v2)
Track 12 accurately ripped (confidence 48) [B7C1875A] (AR v2)

All tracks accurately ripped

End of status report
[свернуть]

Файл CUE

REM GENRE Rock
REM DATE 2002
REM DISCID A40A470C
REM COMMENT "ExactAudioCopy v1.0b3"
PERFORMER "Chris Isaak"
TITLE "Always Got Tonight"
FILE "Chris Isaak - Always Got Tonight.flac" WAVE
TRACK 01 AUDIO
TITLE "One Day"
PERFORMER "Chris Isaak"
INDEX 01 00:00:00
TRACK 02 AUDIO
TITLE "Let Me Down Easy"
PERFORMER "Chris Isaak"
INDEX 00 04:24:20
INDEX 01 04:26:65
TRACK 03 AUDIO
TITLE "Worked It Out Wrong"
PERFORMER "Chris Isaak"
INDEX 00 08:34:50
INDEX 01 08:35:62
TRACK 04 AUDIO
TITLE "Courthouse"
PERFORMER "Chris Isaak"
INDEX 00 12:23:52
INDEX 01 12:24:52
TRACK 05 AUDIO
TITLE "Life Will Go On"
PERFORMER "Chris Isaak"
INDEX 00 15:44:65
INDEX 01 15:46:02
TRACK 06 AUDIO
TITLE "Always Got Tonight"
PERFORMER "Chris Isaak"
INDEX 00 18:52:60
INDEX 01 18:54:00
TRACK 07 AUDIO
TITLE "Cool Love"
PERFORMER "Chris Isaak"
INDEX 00 22:44:17
INDEX 01 22:44:30
TRACK 08 AUDIO
TITLE "Notice the Ring"
PERFORMER "Chris Isaak"
INDEX 00 26:29:47
INDEX 01 26:29:62
TRACK 09 AUDIO
TITLE "I See You Everywhere"
PERFORMER "Chris Isaak"
INDEX 00 30:17:05
INDEX 01 30:17:57
TRACK 10 AUDIO
TITLE "American Boy"
PERFORMER "Chris Isaak"
INDEX 00 33:40:22
INDEX 01 33:40:62
TRACK 11 AUDIO
TITLE "Somebody To Love"
PERFORMER "Chris Isaak"
INDEX 00 36:31:15
INDEX 01 36:32:42
TRACK 12 AUDIO
TITLE "Nothing To Say"
PERFORMER "Chris Isaak"
INDEX 00 39:08:35
INDEX 01 39:09:15
[свернуть]

Лог проверки качества

AUDIOCHECKER v2.0 beta (build 457) - by Dester - [Ссылки могут видеть только зарегистрированные и активированные пользователи.]
[Only registered and activated users can see links.]
~~~~~~~~~~~~~~~~~~~~~~~~~~~~~~~~~~
-=== НЕ РЕДАКТИРУЙТЕ ЭТОТ ФАЙЛ! ===-

Путь: ...\2002 - Always Got Tonight [9 48016-2]

1 -=- Chris Isaak - Always Got Tonight.flac -=- CDDA (100%)

72527796
[свернуть]

Спектр частот

[свернуть]

Скачать Chris Isaak - Always Got Tonight

[Ссылки могут видеть только зарегистрированные и активированные пользователи.]
[Only registered and activated users can see links.]

password: sergych
[свернуть]
My opinion of release: 9/10
__________________
TAIFUN.Wings of Soul

Вверх
Пользователь сказал cпасибо:
Chert (22.04.2015)
Похожие темы
Тема Автор Раздел Ответов Последнее сообщение
Альбом Chris Isaak - Heart Shaped World sergych Pop Rock 3 17.01.2017 23:55
Альбом Chris Isaak - Forever Blue sergych Зарубежная Поп-Музыка 0 01.12.2013 18:34
Релиз Janine - With You Tonight PUPOKIN R&B 0 22.10.2012 09:00
VA DJ Flash - Tonight PUPOKIN Chill Out 0 05.04.2010 10:17
Релиз Chris Isaak - Mr. Lucky PUPOKIN Зарубежная Поп-Музыка 0 21.04.2009 17:37


Метки
2002 , always got tonight , chris isaak , pop rock , rock & roll , rockabilly

Опции темы

Ваши права в разделе
Вы не можете создавать новые темы
Вы не можете отвечать в темах
Вы не можете прикреплять вложения
Вы не можете редактировать свои сообщения

Быстрый переход



Текущее время: 00:44. Часовой пояс GMT +3.
Powered by vBulletin® Version 3.8.10
Copyright ©2000 - 2019, vBulletin Solutions, Inc. Перевод: zCarot
© 2008 - 2019 Taifun With Song
Яндекс.Метрика