TAIFUN With Song
Навигация
А знаете ли Вы, что...
Что значил жест «коза» до эпохи рока и металла?
«Жест «коза» существовал долгое время как магический знак для защиты от сглаза и злых духов. Ронни Джеймс Дио — солист групп Rainbow и Black Sabbath — был первым, кто показал этот жест на рок-концерте. Фанаты переняли его и теперь «коза» очень популярна среди рокеров и металлистов.»
 
Опции темы

  #1
Старый 01.12.2013, 18:34
sergych
Координатор
Досье
 
Аватар для sergych
Релиз Chris Isaak - Forever Blue


1995 - Chris Isaak - Forever Blue




Исполнитель/Artist: Chris Isaak
Альбом/Album: Forever Blue
Год/Year: 1995
Жанр/Genre: pop rock, Rock'n'roll, rockabilly, roots rock
Страна/Country: Соединённые Штаты
Рекорд-лейбл/Record label: Reprise Records
Номер в каталоге/Catalogue #: 9 45845-2
Формат/Format: Free Lossless Audio Codec (*.flac)
Качество/Quality: Lossless
Тип рипа/RIP Type: image+.cue
Продолжительность/Length: 00:39:58
Источник/Source: Собственный рип
Размер/Size: 374.6 MB

Сканы в комплекте

Треклист

01. Baby Did a Bad Bad Thing [0:02:54.34]
02. Somebody's Crying [0:02:48.21]
03. Graduation Day [0:03:10.65]
04. Go Walking Down There [0:02:50.25]
05. Don't Leave Me on My Own [0:02:14.25]
06. Things Go Wrong [0:03:02.00]
07. Forever Blue [0:02:42.37]
08. There She Goes [0:03:14.23]
09. Goin' Nowhere [0:02:54.35]
10. Changed Your Mind [0:03:51.45]
11. Shadows in a Mirror [0:03:59.50]
12. I Believe [0:03:10.12]
13. The End of Everything [0:03:05.30]
[свернуть]

youtube.com

[свернуть]

EAC лог

Exact Audio Copy V1.0 beta 3 from 29. August 2011

EAC extraction logfile from 1. December 2013, 20:57

Chris Isaak / Forever Blue

Used drive : ATAPI iHAS124 D Adapter: 0 ID: 2

Read mode : Secure
Utilize accurate stream : Yes
Defeat audio cache : Yes
Make use of C2 pointers : No

Read offset correction : 6
Overread into Lead-In and Lead-Out : No
Fill up missing offset samples with silence : Yes
Delete leading and trailing silent blocks : No
Null samples used in CRC calculations : Yes
Used interface : Installed external ASPI interface

Used output format : User Defined Encoder
Selected bitrate : 1024 kBit/s
Quality : High
Add ID3 tag : No
Command line compressor : C:\Program Files (x86)\Exact Audio Copy\Flac\flac.exe
Additional command line options : -6 -V -T "ARTIST=%artist%" -T "TITLE=%title%" -T "ALBUM=%albumtitle%" -T "DATE=%year%" -T "TRACKNUMBER=%tracknr%" -T "GENRE=%genre%" -T "COMMENT=%comment%" -T "BAND=%albuminterpret%" -T "COMPOSER=%composer%" %haslyrics%--tag-from-file=LYRICS="%lyricsfile%"%haslyrics% -T "DISCNUMBER=%cdnumber%" -T "TOTALDISCS=%totalcds%" -T "TOTALTRACKS=%numtracks%" %hascover%--picture="%coverfile%"%hascover% %source% -o %dest%


TOC of the extracted CD

Track | Start | Length | Start sector | End sector
---------------------------------------------------------
1 | 0:00.00 | 2:54.34 | 0 | 13083
2 | 2:54.34 | 2:48.21 | 13084 | 25704
3 | 5:42.55 | 3:10.65 | 25705 | 40019
4 | 8:53.45 | 2:50.25 | 40020 | 52794
5 | 11:43.70 | 2:14.25 | 52795 | 62869
6 | 13:58.20 | 3:02.00 | 62870 | 76519
7 | 17:00.20 | 2:42.37 | 76520 | 88706
8 | 19:42.57 | 3:14.23 | 88707 | 103279
9 | 22:57.05 | 2:54.35 | 103280 | 116364
10 | 25:51.40 | 3:51.45 | 116365 | 133734
11 | 29:43.10 | 3:59.50 | 133735 | 151709
12 | 33:42.60 | 3:10.12 | 151710 | 165971
13 | 36:52.72 | 3:05.30 | 165972 | 179876


Range status and errors

Selected range

Filename C:\mm\Chris Isaak\1995 - Forever Blue [Promo] [9 45845-2]\Chris Isaak - Forever Blue.wav

Peak level 100.0 %
Extraction speed 8.7 X
Range quality 99.9 %
Test CRC F96257D5
Copy CRC F96257D5
Copy OK

No errors occurred


AccurateRip summary

Track 1 accurately ripped (confidence 118) [6A67CBC9] (AR v2)
Track 2 accurately ripped (confidence 119) [A608CD17] (AR v2)
Track 3 accurately ripped (confidence 120) [51D46E4F] (AR v2)
Track 4 accurately ripped (confidence 119) [B80609A4] (AR v2)
Track 5 accurately ripped (confidence 121) [3ABC9015] (AR v2)
Track 6 accurately ripped (confidence 119) [A298D5F5] (AR v2)
Track 7 accurately ripped (confidence 120) [A16BB440] (AR v2)
Track 8 accurately ripped (confidence 118) [D8C1953A] (AR v2)
Track 9 accurately ripped (confidence 120) [FCFA46FD] (AR v2)
Track 10 accurately ripped (confidence 118) [D18182D9] (AR v2)
Track 11 accurately ripped (confidence 117) [B7BB1243] (AR v2)
Track 12 accurately ripped (confidence 116) [D839AC70] (AR v2)
Track 13 accurately ripped (confidence 114) [52F0D835] (AR v2)

All tracks accurately ripped

End of status report
[свернуть]

Файл CUE

REM DATE 1995
REM DISCID 9B095E0D
REM COMMENT "ExactAudioCopy v1.0b3"
PERFORMER "Chris Isaak"
TITLE "Forever Blue"
FILE "Chris Isaak - Forever Blue.flac" WAVE
TRACK 01 AUDIO
TITLE "Baby Did a Bad Bad Thing"
PERFORMER "Chris Isaak"
INDEX 01 00:00:00
TRACK 02 AUDIO
TITLE "Somebody's Crying"
PERFORMER "Chris Isaak"
INDEX 00 02:53:72
INDEX 01 02:54:34
TRACK 03 AUDIO
TITLE "Graduation Day"
PERFORMER "Chris Isaak"
INDEX 00 05:40:69
INDEX 01 05:42:55
TRACK 04 AUDIO
TITLE "Go Walking Down There"
PERFORMER "Chris Isaak"
INDEX 00 08:53:20
INDEX 01 08:53:45
TRACK 05 AUDIO
TITLE "Don't Leave Me on My Own"
PERFORMER "Chris Isaak"
INDEX 00 11:43:00
INDEX 01 11:43:70
TRACK 06 AUDIO
TITLE "Things Go Wrong"
PERFORMER "Chris Isaak"
INDEX 00 13:58:02
INDEX 01 13:58:20
TRACK 07 AUDIO
TITLE "Forever Blue"
PERFORMER "Chris Isaak"
INDEX 00 16:58:52
INDEX 01 17:00:20
TRACK 08 AUDIO
TITLE "There She Goes"
PERFORMER "Chris Isaak"
INDEX 00 19:42:07
INDEX 01 19:42:57
TRACK 09 AUDIO
TITLE "Goin' Nowhere"
PERFORMER "Chris Isaak"
INDEX 00 22:56:52
INDEX 01 22:57:05
TRACK 10 AUDIO
TITLE "Changed Your Mind"
PERFORMER "Chris Isaak"
INDEX 00 25:48:70
INDEX 01 25:51:40
TRACK 11 AUDIO
TITLE "Shadows in a Mirror"
PERFORMER "Chris Isaak"
INDEX 00 29:42:62
INDEX 01 29:43:10
TRACK 12 AUDIO
TITLE "I Believe"
PERFORMER "Chris Isaak"
INDEX 00 33:41:72
INDEX 01 33:42:60
TRACK 13 AUDIO
TITLE "The End of Everything"
PERFORMER "Chris Isaak"
INDEX 00 36:51:62
INDEX 01 36:52:72
[свернуть]

Лог проверки качества

AUDIOCHECKER v2.0 beta (build 457) - by Dester - [Ссылки могут видеть только зарегистрированные и активированные пользователи.]
[Only registered and activated users can see links.]
~~~~~~~~~~~~~~~~~~~~~~~~~~~~~~~~~~
-=== НЕ РЕДАКТИРУЙТЕ ЭТОТ ФАЙЛ! ===-

Путь: ...\1995 - Forever Blue [Promo] [9 45845-2]

1 -=- Chris Isaak - Forever Blue.flac -=- CDDA (100%)

213554500
[свернуть]

Спектр частот

[свернуть]

Скачать Chris Isaak

[Ссылки могут видеть только зарегистрированные и активированные пользователи.]
[Only registered and activated users can see links.]

password: sergych
[свернуть]
My opinion of release: 10/10
__________________
TAIFUN.Wings of Soul

Вверх
Похожие темы
Тема Автор Раздел Ответов Последнее сообщение
Альбом Chris Rea - The Blue Jukebox sergych Blues Rock 1 01.12.2013 13:28
Релиз Chris Isaak - Mr. Lucky PUPOKIN Зарубежная Поп-Музыка 0 21.04.2009 17:37
Альбом Chris Brown - Exclusive - The Forever Edition PUPOKIN R&B 0 01.12.2008 15:53
Альбом Chris Rea - Blue Street (Five Guitars) sergych Jazz и Blues 0 08.08.2008 05:20


Метки
1995 , chris isaak , forever blue [promo] , pop rock , rock'n'roll , rockabilly , roots rock

Опции темы

Ваши права в разделе
Вы не можете создавать новые темы
Вы не можете отвечать в темах
Вы не можете прикреплять вложения
Вы не можете редактировать свои сообщения

Быстрый переход



Текущее время: 00:48. Часовой пояс GMT +3.
Powered by vBulletin® Version 3.8.10
Copyright ©2000 - 2019, vBulletin Solutions, Inc. Перевод: zCarot
© 2008 - 2019 Taifun With Song
Яндекс.Метрика