TAIFUN With Song - качественная и редкая музыка
Навигация
Heavy Metal Выражение "Heavy Metall" впервые появилось в романе известного американского писателя Уильяма Берроуза "Naked Lunch" (1959), где он использует этот термин для описания резкой, непривычной музыки. Элемент импровизации в истинном "металле" практически сведен к нулю, точнее - он отсутствует в традиционном смысле этого слова, однако опытные "металлические" группы (Metallica, Slayer, Megadeth) часто вводят в свои композиции очень сложные изменения ритма, и у неподготовленного слушателя может возникнуть ощущение какофонии, хотя речь идет о ритмической импровизации, по духу очень близкой той, которую исследуют серьезные современные композиторы.

А знаете ли Вы, что...
Зачем в Англии 19 века надевали чехлы на ножки роялей?
«В пуританской Англии 19 века из общественной жизни старательно изгонялось всё, что могло показаться хоть сколько-нибудь эротичным. Так, во время концертов на ножки роялей надевали чехлы, чтобы никто, глядя на эти голые ножки, не задумался о чём-нибудь непристойном.»
 
Опции темы

  #1
Старый 23.09.2021, 19:19
swint68
Релизёр
Досье
 
Аватар для swint68
FLAC Rage - Resurrection Day [Japanese Edition]


2021 - Rage - Resurrection Day [Japanese Edition]




Исполнитель/Artist: Rage
Альбом/Album: Resurrection Day [Japanese Edition]
Год/Year: 2021
Жанр/Genre: Heavy Metal, Power Metal, Speed Metal
Страна/Country: Япония
Рекорд-лейбл/Record label: Ward Records Inc.; Chaos Reigns
Номер в каталоге/Catalogue #: GQCS-91075
Формат/Format: Free Lossless Audio Codec (*.flac)
Качество/Quality: Lossless
Тип рипа/RIP Type: image+.cue
Продолжительность/Length: 00:54:14
Источник/Source: Hellwings71
Размер/Size: 474 MB

Сканы в комплекте

Треклист

01. Memento Vitae (Overture)
02. Resurrection Day
03. Virginity
04. A New Land
05. Arrogance and Ignorance
06. Man In Chains
07. The Age Of Reason
08. Monetary Gods
09. Mind Control
10. Traveling Through Time
11. Black Room
12. Extinction Overkill
13. Black In Mind (bonus' Live)
[свернуть]

Превью на YouTube

[свернуть]

EAC лог

Exact Audio Copy V1.6 from 23. October 2020

EAC extraction logfile from 23. September 2021, 11:10

Rage / Resurrection Day (GQCS-91075)

Used drive : PIONEER DVD-RW DVR-221 Adapter: 1 ID: 0

Read mode : Secure
Utilize accurate stream : Yes
Defeat audio cache : Yes
Make use of C2 pointers : No

Read offset correction : 6
Overread into Lead-In and Lead-Out : No
Fill up missing offset samples with silence : Yes
Delete leading and trailing silent blocks : No
Null samples used in CRC calculations : Yes
Used interface : Installed external ASPI interface

Used output format : User Defined Encoder
Selected bitrate : 1024 kBit/s
Quality : High
Add ID3 tag : No
Command line compressor : C:\Program Files\Exact Audio Copy\FLAC\FLAC.EXE
Additional command line options : -V -8 -T "Date=%year%" -T "Genre=%genre%" -T "COMMENT=Ripped by Hellwings71" -8 -V %source%


TOC of the extracted CD

Track | Start | Length | Start sector | End sector
---------------------------------------------------------
1 | 0:00.00 | 1:14.38 | 0 | 5587
2 | 1:14.38 | 4:18.44 | 5588 | 24981
3 | 5:33.07 | 3:41.50 | 24982 | 41606
4 | 9:14.57 | 3:50.07 | 41607 | 58863
5 | 13:04.64 | 5:00.19 | 58864 | 81382
6 | 18:05.08 | 4:37.04 | 81383 | 102161
7 | 22:42.12 | 4:21.68 | 102162 | 121804
8 | 27:04.05 | 3:54.55 | 121805 | 139409
9 | 30:58.60 | 4:14.49 | 139410 | 158508
10 | 35:13.34 | 4:12.67 | 158509 | 177475
11 | 39:26.26 | 4:49.15 | 177476 | 199165
12 | 44:15.41 | 5:48.31 | 199166 | 225296
13 | 50:03.72 | 4:11.00 | 225297 | 244121


Range status and errors

Selected range

Filename E:\Program Files\CD Images\Hellwings71\Rage - Resurrection Day 2021 (Japanese Edition) (Lossless)\Rage - Resurrection Day (GQCS-91075).wav

Peak level 100.0 %
Extraction speed 7.3 X
Range quality 100.0 %
Test CRC D1196143
Copy CRC D1196143
Copy OK

No errors occurred


AccurateRip summary

Track 1 not present in database
Track 2 not present in database
Track 3 not present in database
Track 4 not present in database
Track 5 not present in database
Track 6 not present in database
Track 7 not present in database
Track 8 not present in database
Track 9 not present in database
Track 10 not present in database
Track 11 not present in database
Track 12 not present in database
Track 13 not present in database

None of the tracks are present in the AccurateRip database

End of status report

---- CUETools DB Plugin V2.1.6

[CTDB TOCID: JHQISx3uyjtrn3pQzCnFOes_D9M-] found
Submit result: JHQISx3uyjtrn3pQzCnFOes_D9M- has been confirmed
Track | CTDB Status
1 | (4/4) Accurately ripped
2 | (4/4) Accurately ripped
3 | (4/4) Accurately ripped
4 | (4/4) Accurately ripped
5 | (4/4) Accurately ripped
6 | (4/4) Accurately ripped
7 | (4/4) Accurately ripped
8 | (4/4) Accurately ripped
9 | (4/4) Accurately ripped
10 | (4/4) Accurately ripped
11 | (4/4) Accurately ripped
12 | (4/4) Accurately ripped
13 | (4/4) Accurately ripped


==== Log checksum FFFF818AD3C064C3ABBB36F12A3D06C05D4FD8EE377ADC04F4B79A626605579D ====
[свернуть]

Файл CUE

REM GENRE "Heavy/Power/Thrash Metal"
REM DATE 2021
REM DISCID B30CB60D
REM COMMENT "ExactAudioCopy v1.6"
PERFORMER "Rage"
TITLE "Resurrection Day (GQCS-91075)"
REM COMPOSER ""
FILE "Rage - Resurrection Day (GQCS-91075).flac" WAVE
TRACK 01 AUDIO
TITLE "Memento Vitae (Overture)"
PERFORMER "Rage"
REM COMPOSER ""
INDEX 01 00:00:00
TRACK 02 AUDIO
TITLE "Resurrection Day"
PERFORMER "Rage"
REM COMPOSER ""
INDEX 01 01:14:38
TRACK 03 AUDIO
TITLE "Virginity"
PERFORMER "Rage"
REM COMPOSER ""
INDEX 01 05:33:07
TRACK 04 AUDIO
TITLE "A New Land"
PERFORMER "Rage"
REM COMPOSER ""
INDEX 01 09:14:57
TRACK 05 AUDIO
TITLE "Arrogance And Ignorance"
PERFORMER "Rage"
REM COMPOSER ""
INDEX 01 13:04:64
TRACK 06 AUDIO
TITLE "Man In Chains"
PERFORMER "Rage"
REM COMPOSER ""
INDEX 01 18:05:08
TRACK 07 AUDIO
TITLE "The Age of Reason"
PERFORMER "Rage"
REM COMPOSER ""
INDEX 01 22:42:12
TRACK 08 AUDIO
TITLE "Monetary Gods"
PERFORMER "Rage"
REM COMPOSER ""
INDEX 01 27:04:05
TRACK 09 AUDIO
TITLE "Mind Control"
PERFORMER "Rage"
REM COMPOSER ""
INDEX 01 30:58:60
TRACK 10 AUDIO
TITLE "Traveling Through Time"
PERFORMER "Rage"
REM COMPOSER ""
INDEX 01 35:13:34
TRACK 11 AUDIO
TITLE "Black Room"
PERFORMER "Rage"
REM COMPOSER ""
INDEX 01 39:26:26
TRACK 12 AUDIO
TITLE "Extinction Overkill"
PERFORMER "Rage"
REM COMPOSER ""
INDEX 01 44:15:41
TRACK 13 AUDIO
TITLE "Black In Mind (From the 'Rage in The Cave' sessions)"
PERFORMER "Rage"
REM COMPOSER ""
INDEX 01 50:03:72
[свернуть]

Лог проверки качества

-----------------------

DON'T MODIFY THIS FILE

-----------------------

PERFORMER: auCDtect Task Manager, ver. 1.6.0 RC1 build 1.6.0.1
Copyright © 2008-2010 y-soft. All rights reserved
[Ссылки могут видеть только зарегистрированные и активированные пользователи.]
[Only registered and activated users can see links.]

ANALYZER: auCDtect: CD records authenticity detector, version 0.8.2
Copyright © 2004 Oleg Berngardt. All rights reserved.
Copyright © 2004 Alexander Djourik. All rights reserved.


FILE: Rage - Resurrection Day (GQCS-91075).flac
Size: 410862242 Hash: 2CAC943EE76AA50C03250F308B01D22D Accuracy: -m0
Conclusion: CDDA 100%
Signature: 11F3C4D5D155508DA2B8938E25F9D3B38F048BAE
[свернуть]

Скачать Rage - Resurrection Day [Japanese Edition]

[Ссылки могут видеть только зарегистрированные и активированные пользователи.]
[Only registered and activated users can see links.]
[свернуть]

Вверх
Пользователь сказал cпасибо:
TAIFUN (24.09.2021)
 
Похожие темы
Тема Автор Раздел Ответов Последнее сообщение
Альбом Whitesnake - The Blues Album [Japanese Edition] swint68 Hard Rock 0 17.03.2021 20:34
Релиз Beyond The Black - Lost In Forever [Japanese Edition] PUPOKIN Symphonic Metal 0 06.02.2017 14:57
Релиз Stryper - No More Hell To Pay [Japanese Edition] PUPOKIN Heavy Metal 0 08.11.2013 10:09
Релиз Sebadoh - Defend Yourself [Japanese Edition] PUPOKIN Indie Rock 0 20.09.2013 10:30
Релиз ReinXeed - A New World [Japanese Edition] PUPOKIN Power Metal 0 07.09.2013 10:37


Метки
2021 , heavy metal , japanese edition , power metal , rage , speed metal

Опции темы

Ваши права в разделе
Вы не можете создавать новые темы
Вы не можете отвечать в темах
Вы не можете прикреплять вложения
Вы не можете редактировать свои сообщения

Быстрый переход


Текущее время: 20:14. Часовой пояс GMT +3.

© 2008 - 2021 Taifun With Song
Powered by vBulletin® Version 3.8.10
Copyright ©2000 - 2021, vBulletin Solutions, Inc. Перевод: zCarot
При поддержке NIC.UA
Яндекс.Метрика
1.12170 сек. | MySQL: 17