TAIFUN With Song - качественная и редкая музыка
Навигация
А знаете ли Вы, что...
Когда и у кого отобрали ранее врученную музыкальную премию Грэмми?
«В 1987 году продюсер Boney M задумал новый проект под названием Milli Vanilli. Однако внешность основных исполнителей оказалась не соответствующей ожиданиям молодёжной аудитории, и так получилось, что лицом группы стали два танцора, всегда поющие «под фанеру». Вскоре группа обрела сверхпопулярность по всему миру, но длилось это недолго, и музыканты были разоблачены. Компания-производитель дисков стала возвращать всем желающим деньги за альбом, а у дуэта отобрали ранее врученную премию Грэмми — единственный случай в истории этой музыкальной награды.»
 
Опции темы

  #1
Старый 19.07.2021, 16:22
sergych
Координатор
Досье
 
Аватар для sergych
FLAC Kim Wilde - Greatest Hits. The Gold Collection


1996 - Kim Wilde - Greatest Hits. The Gold Collection




Исполнитель/Artist: Kim Wilde
Альбом/Album: Greatest Hits. The Gold Collection
Год/Year: 1996
Жанр/Genre: pop, new wave
Страна/Country: Великобритания
Рекорд-лейбл/Record label: EMI Records
Номер в каталоге/Catalogue #: 7243 8 37161 2 8
Формат/Format: Free Lossless Audio Codec (*.flac)
Качество/Quality: Lossless
Тип рипа/RIP Type: image+.cue


Продолжительность/Length: 01:13:37
Источник/Source: Собственный рип
Размер/Size: 511.6 MB

Сканы в комплекте

Треклист

01. Kids in America [0:03:25.70]
02. Chequered Love [0:03:21.57]
03. Water on Glass [0:03:35.40]
04. Everything We Know [0:03:42.25]
05. Young Heroes [0:03:16.08]
06. 2-6-5-8-0 [0:03:10.65]
07. You'll Never Be So Wrong [0:04:10.32]
08. Falling Out [0:04:02.53]
09. Tuning in Tuning On [0:04:24.10]
10. Ego [0:04:10.65]
11. View From a Bridge [0:03:30.42]
12. Words Fell Down [0:03:30.73]
13. Action City [0:03:23.17]
14. Just a Feeling [0:04:09.65]
15. Chaos at the Airport [0:03:18.28]
16. Take Me Tonight [0:03:51.62]
17. Can You Come Over [0:03:34.63]
18. Wendy Said [0:03:48.60]
19. Our Town [0:03:47.20]
20. Cambodia (reprise) [0:03:19.52]
[свернуть]

Превью на YouTube

[свернуть]

Исполнители/Performers

Kim Wilde – lead and backing vocals
Robert John Godfrey – keyboards
Stephen Stewart – guitars
Francis Lickerish – guitars
Martin Russell – bass
Chris North – drums
[свернуть]

EAC лог

Exact Audio Copy V1.5 from 20. February 2020

EAC extraction logfile from 10. July 2021, 17:01

Kim Wilde / Greatest Hits. The Gold Collection

Used drive : PIONEER DVD-RW DVR-220L Adapter: 1 ID: 0

Read mode : Secure
Utilize accurate stream : Yes
Defeat audio cache : Yes
Make use of C2 pointers : No

Read offset correction : 6
Overread into Lead-In and Lead-Out : No
Fill up missing offset samples with silence : Yes
Delete leading and trailing silent blocks : No
Null samples used in CRC calculations : Yes
Used interface : Installed external ASPI interface

Used output format : User Defined Encoder
Selected bitrate : 1024 kBit/s
Quality : High
Add ID3 tag : No
Command line compressor : C:\Program Files (x86)\Exact Audio Copy\Flac\flac.exe
Additional command line options : -6 -V -T "ARTIST=%artist%" -T "TITLE=%title%" -T "ALBUM=%albumtitle%" -T "DATE=%year%" -T "TRACKNUMBER=%tracknr%" -T "GENRE=%genre%" -T "COMMENT=%comment%" -T "BAND=%albuminterpret%" -T "ALBUMARTIST=%albuminterpret%" -T "COMPOSER=%composer%" %haslyrics%--tag-from-file=LYRICS="%lyricsfile%"%haslyrics% -T "DISCNUMBER=%cdnumber%" -T "TOTALDISCS=%totalcds%" -T "TOTALTRACKS=%numtracks%" %hascover%--picture="%coverfile%"%hascover% %source% -o %dest%


TOC of the extracted CD

Track | Start | Length | Start sector | End sector
---------------------------------------------------------
1 | 0:00.33 | 3:25.70 | 33 | 15477
2 | 3:26.28 | 3:21.57 | 15478 | 30609
3 | 6:48.10 | 3:35.40 | 30610 | 46774
4 | 10:23.50 | 3:42.25 | 46775 | 63449
5 | 14:06.00 | 3:16.08 | 63450 | 78157
6 | 17:22.08 | 3:10.65 | 78158 | 92472
7 | 20:32.73 | 4:10.32 | 92473 | 111254
8 | 24:43.30 | 4:02.53 | 111255 | 129457
9 | 28:46.08 | 4:24.10 | 129458 | 149267
10 | 33:10.18 | 4:10.65 | 149268 | 168082
11 | 37:21.08 | 3:30.42 | 168083 | 183874
12 | 40:51.50 | 3:30.73 | 183875 | 199697
13 | 44:22.48 | 3:23.17 | 199698 | 214939
14 | 47:45.65 | 4:09.65 | 214940 | 233679
15 | 51:55.55 | 3:18.28 | 233680 | 248557
16 | 55:14.08 | 3:51.62 | 248558 | 265944
17 | 59:05.70 | 3:34.63 | 265945 | 282057
18 | 62:40.58 | 3:48.60 | 282058 | 299217
19 | 66:29.43 | 3:47.20 | 299218 | 316262
20 | 70:16.63 | 3:19.52 | 316263 | 331239


Range status and errors

Selected range

Filename C:\mm\Kim Wilde\1996 - Greatest Hits. The Gold Collection [7243 8 37161 2 8]\Kim Wilde - Greatest Hits. The Gold Collection.wav

Peak level 98.3 %
Extraction speed 8.3 X
Range quality 100.0 %
Test CRC 2646E5F9
Copy CRC 2646E5F9
Copy OK

No errors occurred


AccurateRip summary

Track 1 accurately ripped (confidence 83) [051954F0] (AR v2)
Track 2 accurately ripped (confidence 83) [EF1D858D] (AR v2)
Track 3 accurately ripped (confidence 83) [A6438E72] (AR v2)
Track 4 accurately ripped (confidence 84) [0C192DF3] (AR v2)
Track 5 accurately ripped (confidence 84) [29757E2B] (AR v2)
Track 6 accurately ripped (confidence 83) [E289F02E] (AR v2)
Track 7 accurately ripped (confidence 84) [5256216D] (AR v2)
Track 8 accurately ripped (confidence 84) [794D926D] (AR v2)
Track 9 accurately ripped (confidence 84) [B50AD167] (AR v2)
Track 10 accurately ripped (confidence 84) [0FF2E493] (AR v2)
Track 11 accurately ripped (confidence 83) [CCA54A06] (AR v2)
Track 12 accurately ripped (confidence 84) [AD16FDE4] (AR v2)
Track 13 accurately ripped (confidence 84) [3FB0FB8B] (AR v2)
Track 14 accurately ripped (confidence 84) [0D2FF836] (AR v2)
Track 15 accurately ripped (confidence 84) [0758C8DA] (AR v2)
Track 16 accurately ripped (confidence 83) [85D47AE3] (AR v2)
Track 17 accurately ripped (confidence 82) [C03E46F5] (AR v2)
Track 18 accurately ripped (confidence 84) [0D767B7B] (AR v2)
Track 19 accurately ripped (confidence 85) [33665861] (AR v2)
Track 20 accurately ripped (confidence 82) [EFE7F840] (AR v2)

All tracks accurately ripped

End of status report

---- CUETools DB Plugin V2.1.6

[CTDB TOCID: vUIrDMH9KjsAVI8A8xtqCcia7d8-] found
Submit result: vUIrDMH9KjsAVI8A8xtqCcia7d8- has been confirmed
Track | CTDB Status
1 | (484/484) Accurately ripped
2 | (484/484) Accurately ripped
3 | (483/484) Accurately ripped
4 | (481/484) Accurately ripped
5 | (483/484) Accurately ripped
6 | (482/484) Accurately ripped
7 | (483/484) Accurately ripped
8 | (481/484) Accurately ripped
9 | (483/484) Accurately ripped
10 | (482/484) Accurately ripped
11 | (483/484) Accurately ripped
12 | (484/484) Accurately ripped
13 | (484/484) Accurately ripped
14 | (482/484) Accurately ripped
15 | (483/484) Accurately ripped
16 | (483/484) Accurately ripped
17 | (482/484) Accurately ripped
18 | (482/484) Accurately ripped
19 | (480/484) Accurately ripped
20 | (475/484) Accurately ripped
[свернуть]

Файл CUE

REM GENRE Pop
REM DATE 1996
REM DISCID 24114014
REM COMMENT "ExactAudioCopy v1.5"
PERFORMER "Kim Wilde"
TITLE "Greatest Hits. The Gold Collection"
REM COMPOSER ""
FILE "Kim Wilde - Greatest Hits. The Gold Collection.flac" WAVE
TRACK 01 AUDIO
TITLE "Kids in America"
PERFORMER "Kim Wilde"
REM COMPOSER ""
INDEX 00 00:00:00
INDEX 01 00:00:33
TRACK 02 AUDIO
TITLE "Chequered Love"
PERFORMER "Kim Wilde"
REM COMPOSER ""
INDEX 00 03:25:48
INDEX 01 03:26:28
TRACK 03 AUDIO
TITLE "Water on Glass"
PERFORMER "Kim Wilde"
REM COMPOSER ""
INDEX 00 06:46:50
INDEX 01 06:48:10
TRACK 04 AUDIO
TITLE "Everything We Know"
PERFORMER "Kim Wilde"
REM COMPOSER ""
INDEX 00 10:23:23
INDEX 01 10:23:50
TRACK 05 AUDIO
TITLE "Young Heroes"
PERFORMER "Kim Wilde"
REM COMPOSER ""
INDEX 00 14:05:30
INDEX 01 14:06:00
TRACK 06 AUDIO
TITLE "2-6-5-8-0"
PERFORMER "Kim Wilde"
REM COMPOSER ""
INDEX 00 17:19:70
INDEX 01 17:22:08
TRACK 07 AUDIO
TITLE "You'll Never Be So Wrong"
PERFORMER "Kim Wilde"
REM COMPOSER ""
INDEX 00 20:32:58
INDEX 01 20:32:73
TRACK 08 AUDIO
TITLE "Falling Out"
PERFORMER "Kim Wilde"
REM COMPOSER ""
INDEX 00 24:43:28
INDEX 01 24:43:30
TRACK 09 AUDIO
TITLE "Tuning in Tuning On"
PERFORMER "Kim Wilde"
REM COMPOSER ""
INDEX 00 28:45:70
INDEX 01 28:46:08
TRACK 10 AUDIO
TITLE "Ego"
PERFORMER "Kim Wilde"
REM COMPOSER ""
INDEX 00 33:10:05
INDEX 01 33:10:18
TRACK 11 AUDIO
TITLE "View From a Bridge"
PERFORMER "Kim Wilde"
REM COMPOSER ""
INDEX 00 37:20:38
INDEX 01 37:21:08
TRACK 12 AUDIO
TITLE "Words Fell Down"
PERFORMER "Kim Wilde"
REM COMPOSER ""
INDEX 00 40:50:58
INDEX 01 40:51:50
TRACK 13 AUDIO
TITLE "Action City"
PERFORMER "Kim Wilde"
REM COMPOSER ""
INDEX 00 44:21:03
INDEX 01 44:22:48
TRACK 14 AUDIO
TITLE "Just a Feeling"
PERFORMER "Kim Wilde"
REM COMPOSER ""
INDEX 00 47:45:55
INDEX 01 47:45:65
TRACK 15 AUDIO
TITLE "Chaos at the Airport"
PERFORMER "Kim Wilde"
REM COMPOSER ""
INDEX 00 51:55:18
INDEX 01 51:55:55
TRACK 16 AUDIO
TITLE "Take Me Tonight"
PERFORMER "Kim Wilde"
REM COMPOSER ""
INDEX 00 55:13:14
INDEX 01 55:14:08
TRACK 17 AUDIO
TITLE "Can You Come Over"
PERFORMER "Kim Wilde"
REM COMPOSER ""
INDEX 00 59:05:68
INDEX 01 59:05:70
TRACK 18 AUDIO
TITLE "Wendy Said"
PERFORMER "Kim Wilde"
REM COMPOSER ""
INDEX 00 62:39:05
INDEX 01 62:40:58
TRACK 19 AUDIO
TITLE "Our Town"
PERFORMER "Kim Wilde"
REM COMPOSER ""
INDEX 00 66:27:58
INDEX 01 66:29:43
TRACK 20 AUDIO
TITLE "Cambodia (reprise)"
PERFORMER "Kim Wilde"
REM COMPOSER ""
INDEX 00 70:16:58
INDEX 01 70:16:63
[свернуть]

Лог проверки качества

AUDIOCHECKER v2.0 beta (build 457) - by Dester - [Ссылки могут видеть только зарегистрированные и активированные пользователи.]
[Only registered and activated users can see links.]
~~~~~~~~~~~~~~~~~~~~~~~~~~~~~~~~~~
-=== НЕ РЕДАКТИРУЙТЕ ЭТОТ ФАЙЛ! ===-

Путь: ...\1996 - Greatest Hits. The Gold Collection [7243 8 37161 2 8]

1 -=- Kim Wilde - Greatest Hits. The Gold Collection.flac -=- CDDA (100%)

82237284

---------------

PERFORMER: auCDtect Task Manager, ver. 1.6.0 RC1 build 1.6.0.1
Copyright © 2008-2010 y-soft. All rights reserved
[Ссылки могут видеть только зарегистрированные и активированные пользователи.]
[Only registered and activated users can see links.]

ANALYZER: auCDtect: CD records authenticity detector, version 0.8.2
Copyright © 2004 Oleg Berngardt. All rights reserved.
Copyright © 2004 Alexander Djourik. All rights reserved.


FILE: Kim Wilde - Greatest Hits. The Gold Collection.flac
Size: 514047030 Hash: 2D0B37CAAA52B4AC4BABD6BF7FF7BE13 Accuracy: -m8
Conclusion: CDDA 100%
Signature: E3D995855E6D7B3E0295D162CCF143EB06F43C6B
[свернуть]

Отчёт Dynamic Range Meter

Код:
foobar2000 1.6 / Замер динамического диапазона (DR) 1.1.1
Дата отчёта:		2021-07-11 19:47:46

--------------------------------------------------------------------------------
Анализ:   Kim Wilde / Greatest Hits. The Gold Collection
--------------------------------------------------------------------------------

DR         Пики         RMS           Продолжительность трека
--------------------------------------------------------------------------------
DR9       -0.18 дБ   -12.65 дБ      3:26 01-Kids in America
DR11      -0.18 дБ   -13.21 дБ      3:22 02-Chequered Love
DR10      -0.18 дБ   -12.34 дБ      3:36 03-Water on Glass
DR13      -0.18 дБ   -15.49 дБ      3:42 04-Everything We Know
DR10      -0.18 дБ   -12.65 дБ      3:16 05-Young Heroes
DR12      -0.18 дБ   -14.81 дБ      3:11 06-2-6-5-8-0
DR11      -0.17 дБ   -13.06 дБ      4:10 07-You'll Never Be So Wrong
DR12      -0.18 дБ   -13.97 дБ      4:03 08-Falling Out
DR13      -0.18 дБ   -14.63 дБ      4:24 09-Tuning in Tuning On
DR10      -0.18 дБ   -11.92 дБ      4:11 10-Ego
DR12      -0.18 дБ   -13.68 дБ      3:31 11-View From a Bridge
DR9       -0.14 дБ   -11.26 дБ      3:31 12-Words Fell Down
DR10      -0.18 дБ   -12.39 дБ      3:23 13-Action City
DR9       -0.18 дБ   -11.15 дБ      4:10 14-Just a Feeling
DR10      -0.18 дБ   -12.05 дБ      3:18 15-Chaos at the Airport
DR10      -0.18 дБ   -12.15 дБ      3:52 16-Take Me Tonight
DR8       -1.33 дБ   -10.54 дБ      3:35 17-Can You Come Over
DR10      -0.18 дБ   -12.91 дБ      3:49 18-Wendy Said
DR11      -0.18 дБ   -13.41 дБ      3:47 19-Our Town
DR9       -0.18 дБ   -10.92 дБ      3:20 20-Cambodia (reprise)
--------------------------------------------------------------------------------

Количество треков:	20
Реальные значения DR:	DR10

Частота:			44100 Гц
Каналов:			2
Разрядность: 		16
Битрейт:			931 кбит/с
Кодек:			FLAC
================================================================================
[свернуть]

Спектр частот

[свернуть]

Скачать Kim Wilde - Greatest Hits. The Gold Collection

[Ссылки могут видеть только зарегистрированные и активированные пользователи.]
[Only registered and activated users can see links.]

password: sergych
[свернуть]

Контрольная сумма (хеш-сумма) архива

MD5: 1e6487e26f69f289d484fada815433e1
[свернуть]
My opinion of release: 8/10

Release info RInfo

Содержит полный первый альбом "Kim Wilde" и второй "Select", за исключением Cambodia, ну и порядок треклиста изменён. Немного странно было со стороны EMI называть это Greatest Hits. Ну да им с горы виднее, тем более оба альбома всё-таки засветились в чартах многих стран
__________________
TAIFUN.Wings of Soul

Вверх
4 пользователя(ей) сказали cпасибо:
johnsilver (26.08.2021), Lighting1981 (20.07.2021), swint68 (24.07.2021), TAIFUN (20.07.2021)
 
Похожие темы
Тема Автор Раздел Ответов Последнее сообщение
Сборник Boyz II Men - Legacy: The Greatest Hits Collection sergych R&B 2 03.05.2020 04:39
Сборник Queen - Greatest Hits I, II & III. The Platinum Collection sergych Hard Rock 0 19.02.2017 11:22
Сборник Michael Bolton - Greatest Hits. Steel Box Collection sergych Зарубежная Поп-Музыка 0 11.11.2013 17:05
Сборник Cyndi Lauper - Greatest Hits. Steel Box Collection sergych Soft Rock 0 09.11.2013 19:48
Сборник Rockets - The Definitive Collection (Original Greatest Hits) sergych Electro 0 08.08.2010 16:41


Метки
1996 , greatest hits. the gold collection , kim wilde , new wave , pop

Опции темы

Ваши права в разделе
Вы не можете создавать новые темы
Вы не можете отвечать в темах
Вы не можете прикреплять вложения
Вы не можете редактировать свои сообщения

Быстрый переход


Текущее время: 12:55. Часовой пояс GMT +3.

© 2008 - 2021 Taifun With Song
Powered by vBulletin® Version 3.8.10
Copyright ©2000 - 2021, vBulletin Solutions, Inc. Перевод: zCarot
При поддержке NIC.UA
Яндекс.Метрика
0.56863 сек. | MySQL: 17