TAIFUN With Song - качественная и редкая музыка
Навигация
R&B Ссылки на музыку в этом стиле

А знаете ли Вы, что...
Зачем в Англии 19 века надевали чехлы на ножки роялей?
«В пуританской Англии 19 века из общественной жизни старательно изгонялось всё, что могло показаться хоть сколько-нибудь эротичным. Так, во время концертов на ножки роялей надевали чехлы, чтобы никто, глядя на эти голые ножки, не задумался о чём-нибудь непристойном.»
 
Опции темы

  #1
Старый 05.07.2021, 00:28
sergych
Координатор
Досье
 
Аватар для sergych
FLAC The Miracles - Greatest Hits


2000 - The Miracles - Greatest Hits




Исполнитель/Artist: The Miracles
Альбом/Album: Greatest Hits
Год/Year: 2000
Жанр/Genre: Soul, RnB
Страна/Country: Соединённые Штаты
Рекорд-лейбл/Record label: Masters Records
Номер в каталоге/Catalogue #: Masters 1235 / 0 24266 12352 5
Формат/Format: Free Lossless Audio Codec (*.flac)
Качество/Quality: Lossless
Тип рипа/RIP Type: image+.cue
Продолжительность/Length: 00:29:52
Источник/Source: Собственный рип
Размер/Size: 213.9 MB

Сканы в комплекте

Треклист

01. Love Machine [0:03:05.50]
02. Second That Emotion [0:02:45.35]
03. Ooh Baby Baby [0:02:50.25]
04. More Love [0:02:52.27]
05. The Tracks Of My Tears [0:03:21.55]
06. Shop Around [0:02:54.30]
07. You Really Got A Hold On Me [0:03:09.65]
08. Mickey's Monkey [0:02:46.00]
09. Goin' To A Go Go! [0:03:01.38]
10. The Tears Of A Clown [0:03:04.05]
[свернуть]

Превью на YouTube

[свернуть]

EAC лог

Exact Audio Copy V1.5 from 20. February 2020

EAC extraction logfile from 5. June 2021, 2:05

The Miracles / Greatest Hits

Used drive : PIONEER DVD-RW DVR-220L Adapter: 1 ID: 0

Read mode : Secure
Utilize accurate stream : Yes
Defeat audio cache : Yes
Make use of C2 pointers : No

Read offset correction : 6
Overread into Lead-In and Lead-Out : No
Fill up missing offset samples with silence : Yes
Delete leading and trailing silent blocks : No
Null samples used in CRC calculations : Yes
Used interface : Installed external ASPI interface

Used output format : User Defined Encoder
Selected bitrate : 1024 kBit/s
Quality : High
Add ID3 tag : No
Command line compressor : C:\Program Files (x86)\Exact Audio Copy\Flac\flac.exe
Additional command line options : -6 -V -T "ARTIST=%artist%" -T "TITLE=%title%" -T "ALBUM=%albumtitle%" -T "DATE=%year%" -T "TRACKNUMBER=%tracknr%" -T "GENRE=%genre%" -T "COMMENT=%comment%" -T "BAND=%albuminterpret%" -T "ALBUMARTIST=%albuminterpret%" -T "COMPOSER=%composer%" %haslyrics%--tag-from-file=LYRICS="%lyricsfile%"%haslyrics% -T "DISCNUMBER=%cdnumber%" -T "TOTALDISCS=%totalcds%" -T "TOTALTRACKS=%numtracks%" %hascover%--picture="%coverfile%"%hascover% %source% -o %dest%


TOC of the extracted CD

Track | Start | Length | Start sector | End sector
---------------------------------------------------------
1 | 0:00.00 | 3:05.50 | 0 | 13924
2 | 3:05.50 | 2:45.35 | 13925 | 26334
3 | 5:51.10 | 2:50.25 | 26335 | 39109
4 | 8:41.35 | 2:52.27 | 39110 | 52036
5 | 11:33.62 | 3:21.55 | 52037 | 67166
6 | 14:55.42 | 2:54.30 | 67167 | 80246
7 | 17:49.72 | 3:09.65 | 80247 | 94486
8 | 20:59.62 | 2:46.00 | 94487 | 106936
9 | 23:45.62 | 3:01.38 | 106937 | 120549
10 | 26:47.25 | 3:04.05 | 120550 | 134354


Range status and errors

Selected range

Filename C:\mm\The Miracles\2000 - Greates Hits [Masters 1235]\The Miracles - Greatest Hits.wav

Peak level 99.2 %
Extraction speed 2.8 X
Range quality 100.0 %
Test CRC E536A961
Copy CRC E536A961
Copy OK

No errors occurred


AccurateRip summary

Track 1 cannot be verified as accurate (confidence 1) [1CDBF2AE], AccurateRip returned [A6E413AE] (AR v2)
Track 2 cannot be verified as accurate (confidence 1) [376D068C], AccurateRip returned [86504FC4] (AR v2)
Track 3 cannot be verified as accurate (confidence 1) [800AB853], AccurateRip returned [21903293] (AR v2)
Track 4 cannot be verified as accurate (confidence 1) [BC165A5F], AccurateRip returned [85912021] (AR v2)
Track 5 cannot be verified as accurate (confidence 1) [EA4D3B10], AccurateRip returned [FBD1666D] (AR v2)
Track 6 cannot be verified as accurate (confidence 1) [8FACB4E9], AccurateRip returned [B971CFAF] (AR v2)
Track 7 cannot be verified as accurate (confidence 1) [BCDCB9F5], AccurateRip returned [81D977AA] (AR v2)
Track 8 cannot be verified as accurate (confidence 1) [A09445F0], AccurateRip returned [B16EFA81] (AR v2)
Track 9 cannot be verified as accurate (confidence 1) [91585FC3], AccurateRip returned [022E8AAC] (AR v2)
Track 10 cannot be verified as accurate (confidence 1) [D8BE5475], AccurateRip returned [A713F880] (AR v2)

No tracks could be verified as accurate
You may have a different pressing from the one(s) in the database

End of status report

---- CUETools DB Plugin V2.1.6

[CTDB TOCID: y5YlHlWisUdyhVkIFG2S2ISiChk-] disk not present in database
Submit result: y5YlHlWisUdyhVkIFG2S2ISiChk- has been uploaded
[свернуть]

Файл CUE

REM GENRE Soul
REM DATE 2000
REM DISCID 8406FF0A
REM COMMENT "ExactAudioCopy v1.5"
PERFORMER "The Miracles"
TITLE "Greatest Hits"
REM COMPOSER ""
FILE "The Miracles - Greatest Hits.flac" WAVE
TRACK 01 AUDIO
TITLE "Love Machine"
PERFORMER "The Miracles"
REM COMPOSER ""
INDEX 01 00:00:00
TRACK 02 AUDIO
TITLE "Second That Emotion"
PERFORMER "The Miracles"
REM COMPOSER ""
INDEX 00 03:03:07
INDEX 01 03:05:50
TRACK 03 AUDIO
TITLE "Ooh Baby Baby"
PERFORMER "The Miracles"
REM COMPOSER ""
INDEX 00 05:48:42
INDEX 01 05:51:10
TRACK 04 AUDIO
TITLE "More Love"
PERFORMER "The Miracles"
REM COMPOSER ""
INDEX 00 08:38:67
INDEX 01 08:41:35
TRACK 05 AUDIO
TITLE "The Tracks Of My Tears"
PERFORMER "The Miracles"
REM COMPOSER ""
INDEX 00 11:31:20
INDEX 01 11:33:62
TRACK 06 AUDIO
TITLE "Shop Around"
PERFORMER "The Miracles"
REM COMPOSER ""
INDEX 00 14:53:00
INDEX 01 14:55:42
TRACK 07 AUDIO
TITLE "You Really Got A Hold On Me"
PERFORMER "The Miracles"
REM COMPOSER ""
INDEX 00 17:47:30
INDEX 01 17:49:72
TRACK 08 AUDIO
TITLE "Mickey's Monkey"
PERFORMER "The Miracles"
REM COMPOSER ""
INDEX 00 20:57:20
INDEX 01 20:59:62
TRACK 09 AUDIO
TITLE "Goin' To A Go Go!"
PERFORMER "The Miracles"
REM COMPOSER ""
INDEX 00 23:43:20
INDEX 01 23:45:62
TRACK 10 AUDIO
TITLE "The Tears Of A Clown"
PERFORMER "The Miracles"
REM COMPOSER ""
INDEX 00 26:44:57
INDEX 01 26:47:25
[свернуть]

Лог проверки качества

AUDIOCHECKER v2.0 beta (build 457) - by Dester - [Ссылки могут видеть только зарегистрированные и активированные пользователи.]
[Only registered and activated users can see links.]
~~~~~~~~~~~~~~~~~~~~~~~~~~~~~~~~~~
-=== НЕ РЕДАКТИРУЙТЕ ЭТОТ ФАЙЛ! ===-

Путь: ...\2000 - Greates Hits [Masters 1235]

1 -=- The Miracles - Greatest Hits.flac -=- CDDA (100%)

108506436

-------------------

PERFORMER: auCDtect Task Manager, ver. 1.6.0 RC1 build 1.6.0.1
Copyright © 2008-2010 y-soft. All rights reserved
[Ссылки могут видеть только зарегистрированные и активированные пользователи.]
[Only registered and activated users can see links.]

ANALYZER: auCDtect: CD records authenticity detector, version 0.8.2
Copyright © 2004 Oleg Berngardt. All rights reserved.
Copyright © 2004 Alexander Djourik. All rights reserved.


FILE: The Miracles - Greatest Hits.flac
Size: 211753979 Hash: 3AE72F09B685D6534402273FDAB0FD4D Accuracy: -m8
Conclusion: CDDA 100%
Signature: 853159A6F69F626381D4BC7FA08D5557B746E58A
[свернуть]

Отчёт Dynamic Range Meter

Код:
foobar2000 1.6 / Замер динамического диапазона (DR) 1.1.1
Дата отчёта:		2021-06-05 07:51:37

--------------------------------------------------------------------------------
Анализ:   The Miracles / Greatest Hits
--------------------------------------------------------------------------------

DR         Пики         RMS           Продолжительность трека
--------------------------------------------------------------------------------
DR8       -0.07 дБ    -9.40 дБ      3:06 01-Love Machine
DR10      -0.07 дБ   -11.59 дБ      2:45 02-Second That Emotion
DR10      -0.44 дБ   -11.70 дБ      2:50 03-Ooh Baby Baby
DR10      -0.37 дБ   -11.48 дБ      2:52 04-More Love
DR11      -0.07 дБ   -12.85 дБ      3:22 05-The Tracks Of My Tears
DR10      -0.42 дБ   -11.49 дБ      2:54 06-Shop Around
DR11      -0.42 дБ   -12.48 дБ      3:10 07-You Really Got A Hold On Me
DR9       -0.07 дБ   -10.67 дБ      2:46 08-Mickey's Monkey
DR8       -0.07 дБ    -9.52 дБ      3:02 09-Goin' To A Go Go!
DR9       -0.07 дБ   -11.08 дБ      3:04 10-The Tears Of A Clown
--------------------------------------------------------------------------------

Количество треков:	10
Реальные значения DR:	DR10

Частота:			44100 Гц
Каналов:			2
Разрядность: 		16
Битрейт:			945 кбит/с
Кодек:			FLAC
================================================================================
[свернуть]

Спектр частот

[свернуть]

Скачать The Miracles - Greatest Hits

[Ссылки могут видеть только зарегистрированные и активированные пользователи.]
[Only registered and activated users can see links.]

password: sergych
[свернуть]

Контрольная сумма (хеш-сумма) архива

MD5: e69a13bbf89e11e01d5e1caf1631a8dc
[свернуть]
My opinion of release: 10/10

Release info RInfo

The Miracles — американская ритм-энд-блюзовая группа, ставшая первым успехом для фирмы звукозаписи Берри Горди Motown Records.
В 2004 году они были названы журналом Rolling Stone под № 32 в его 100 Greatest Artists of All Time, сохранив ту же позицию и спустя 7 лет (в 2011 году). Группа была включена в Зал Славы Грэмми (Grammy Hall of Fame) и получила звезду на голливудской «Аллее славы» (Hollywood Walk Of Fame) в 2009 году. В 2008 журнал Billboard назвал их под № 61 в своём списке 100 наиболее успешных исполнителей всех времён.
The Miracles были включены в Зал славы вокальных групп (Vocal Group Hall of Fame) в 2001 году и в Зал славы рок-н-ролла (Rock and Roll Hall of Fame) в 2012 году.
__________________
TAIFUN.Wings of Soul

Вверх
Пользователь сказал cпасибо:
TAIFUN (05.07.2021)
 
Похожие темы
Тема Автор Раздел Ответов Последнее сообщение
Сборник Stevie Wonder - Greatest Hits Vol. 2 sergych R&B 0 13.07.2014 22:42
Сборник Sting - Greatest Hits sergych Pop Rock 0 04.11.2010 10:14
VA OE3 Greatest Hits Vol 50 PUPOKIN Dance 0 06.08.2010 09:58
Релиз A1 - Greatest Hits PUPOKIN Зарубежная Поп-Музыка 0 10.02.2009 18:10
Nas - Greatest Hits Alex1990 Зарубежный 0 05.05.2008 07:31


Метки
2000 , greatest hits , rnb , soul , the miracles

Опции темы

Ваши права в разделе
Вы не можете создавать новые темы
Вы не можете отвечать в темах
Вы не можете прикреплять вложения
Вы не можете редактировать свои сообщения

Быстрый переход


Текущее время: 13:14. Часовой пояс GMT +3.

© 2008 - 2021 Taifun With Song
Powered by vBulletin® Version 3.8.10
Copyright ©2000 - 2021, vBulletin Solutions, Inc. Перевод: zCarot
При поддержке NIC.UA
Яндекс.Метрика
1.04329 сек. | MySQL: 17