TAIFUN With Song - качественная и редкая музыка
Навигация
А знаете ли Вы, что...
Зачем группа Van Halen в своём райдере требовала предоставить M&M's, но убрать все коричневые конфеты?
«Американская хард-рок группа Van Halen выезжала на гастроли с большим количеством сценического оборудования, так как их шоу были одними из самых сложных в техническом отношении и насыщены множеством спецэффектов. В райдере группы одним из требований было поставить на стол в гримёрке блюдо с M&M's, из которого должны быть убраны все коричневые конфеты. Объяснялся этот пункт вовсе не повышенной капризностью рокеров — если организаторы концерта не выполняли требование об M&M's, это говорило об их невнимательном отношении к деталям райдера. Значит, и другие его пункты могли быть проигнорированы, что могло создать проблемы с качественным проведением шоу и его безопасностью.»
 
Опции темы

  #1
Старый 30.12.2014, 18:21
sergych
Координатор
Досье
 
Аватар для sergych
FLAC Des'ree - Supernatural


1998 - Des'ree - Supernatural




Исполнитель/Artist: Des'ree
Альбом/Album: Supernatural
Год/Year: 1998
Жанр/Genre: R&B, soul, funk
Страна/Country: Япония
Рекорд-лейбл/Record label: Epic Records
Номер в каталоге/Catalogue #: ESCA 7333
Формат/Format: Free Lossless Audio Codec (*.flac)
Качество/Quality: Lossless
Тип рипа/RIP Type: image+.cue



Продолжительность/Length: 01:00:02
Источник/Source: Собственный рип
Размер/Size: 469.3 MB

Сканы в комплекте

Треклист

01. What's Your Sign? [0:04:07.37]
02. God Only Knows [0:04:44.48]
03. Life [0:03:38.02]
04. Best Days [0:04:11.60]
05. Proud To Be A Dread [0:03:57.05]
06. I'm Kissing You [0:04:53.13]
07. Indigo Daisies [0:06:55.32]
08. Time [0:04:13.50]
09. Down By The River [0:05:11.70]
10. Darwin Star [0:05:18.48]
11. Warm Hands,Cold Heart [0:04:35.22]
12. Soul Paradise [0:04:24.63]
13. Fire [0:03:50.37]
[свернуть]

youtube.com

[свернуть]

EAC лог

Exact Audio Copy V1.3 from 2. September 2016

EAC extraction logfile from 7. November 2019, 16:19

Des'ree / Supernatural

Used drive : PIONEER DVD-RW DVR-220L Adapter: 1 ID: 0

Read mode : Secure
Utilize accurate stream : Yes
Defeat audio cache : Yes
Make use of C2 pointers : No

Read offset correction : 6
Overread into Lead-In and Lead-Out : No
Fill up missing offset samples with silence : Yes
Delete leading and trailing silent blocks : No
Null samples used in CRC calculations : Yes
Used interface : Installed external ASPI interface

Used output format : User Defined Encoder
Selected bitrate : 1024 kBit/s
Quality : High
Add ID3 tag : No
Command line compressor : C:\Program Files (x86)\Exact Audio Copy\Flac\flac.exe
Additional command line options : -6 -V -T "ARTIST=%artist%" -T "TITLE=%title%" -T "ALBUM=%albumtitle%" -T "DATE=%year%" -T "TRACKNUMBER=%tracknr%" -T "GENRE=%genre%" -T "COMMENT=%comment%" -T "BAND=%albuminterpret%" -T "ALBUMARTIST=%albuminterpret%" -T "COMPOSER=%composer%" %haslyrics%--tag-from-file=LYRICS="%lyricsfile%"%haslyrics% -T "DISCNUMBER=%cdnumber%" -T "TOTALDISCS=%totalcds%" -T "TOTALTRACKS=%numtracks%" %hascover%--picture="%coverfile%"%hascover% %source% -o %dest%


TOC of the extracted CD

Track | Start | Length | Start sector | End sector
---------------------------------------------------------
1 | 0:00.00 | 4:07.37 | 0 | 18561
2 | 4:07.37 | 4:44.48 | 18562 | 39909
3 | 8:52.10 | 3:38.02 | 39910 | 56261
4 | 12:30.12 | 4:11.60 | 56262 | 75146
5 | 16:41.72 | 3:57.05 | 75147 | 92926
6 | 20:39.02 | 4:53.13 | 92927 | 114914
7 | 25:32.15 | 6:55.32 | 114915 | 146071
8 | 32:27.47 | 4:13.50 | 146072 | 165096
9 | 36:41.22 | 5:11.70 | 165097 | 188491
10 | 41:53.17 | 5:18.48 | 188492 | 212389
11 | 47:11.65 | 4:35.22 | 212390 | 233036
12 | 51:47.12 | 4:24.63 | 233037 | 252899
13 | 56:12.00 | 3:50.37 | 252900 | 270186


Range status and errors

Selected range

Filename C:\mm\Des'ree\1998 - Supernatural [ESCA 7333]\Des'ree - Supernatural.wav

Peak level 100.0 %
Extraction speed 7.4 X
Range quality 100.0 %
Test CRC DB29E136
Copy CRC DB29E136
Copy OK

No errors occurred


AccurateRip summary

Track 1 accurately ripped (confidence 17) [59EB2B47] (AR v2)
Track 2 accurately ripped (confidence 17) [CAA3BCC4] (AR v2)
Track 3 accurately ripped (confidence 17) [FBECB010] (AR v2)
Track 4 accurately ripped (confidence 17) [795EEABB] (AR v2)
Track 5 accurately ripped (confidence 17) [1591F28B] (AR v2)
Track 6 accurately ripped (confidence 17) [15ACA390] (AR v2)
Track 7 accurately ripped (confidence 17) [184E7FCE] (AR v2)
Track 8 accurately ripped (confidence 17) [34558052] (AR v2)
Track 9 accurately ripped (confidence 17) [F19AD6ED] (AR v2)
Track 10 accurately ripped (confidence 17) [31C62D25] (AR v2)
Track 11 accurately ripped (confidence 17) [A2C1D24A] (AR v2)
Track 12 accurately ripped (confidence 17) [1B4E8B8A] (AR v2)
Track 13 accurately ripped (confidence 17) [7ADFDC6B] (AR v2)

All tracks accurately ripped

End of status report
[свернуть]

Файл CUE

REM GENRE Funk
REM DATE 1998
REM DISCID 9D0E120D
REM COMMENT "ExactAudioCopy v1.0b3"
PERFORMER "Des'ree"
TITLE "Supernatural"
FILE "Des'ree - Supernatural.flac" WAVE
TRACK 01 AUDIO
TITLE "What's Your Sign?"
PERFORMER "Des'ree"
INDEX 01 00:00:00
TRACK 02 AUDIO
TITLE "God Only Knows"
PERFORMER "Des'ree"
INDEX 01 04:07:37
TRACK 03 AUDIO
TITLE "Life"
PERFORMER "Des'ree"
INDEX 01 08:52:10
TRACK 04 AUDIO
TITLE "Best Days"
PERFORMER "Des'ree"
INDEX 01 12:30:12
TRACK 05 AUDIO
TITLE "Proud To Be A Dread"
PERFORMER "Des'ree"
INDEX 01 16:41:72
TRACK 06 AUDIO
TITLE "I'm Kissing You"
PERFORMER "Des'ree"
INDEX 01 20:39:02
TRACK 07 AUDIO
TITLE "Indigo Daisies"
PERFORMER "Des'ree"
INDEX 01 25:32:15
TRACK 08 AUDIO
TITLE "Time"
PERFORMER "Des'ree"
INDEX 01 32:27:47
TRACK 09 AUDIO
TITLE "Down By The River"
PERFORMER "Des'ree"
INDEX 01 36:41:22
TRACK 10 AUDIO
TITLE "Darwin Star"
PERFORMER "Des'ree"
INDEX 01 41:53:17
TRACK 11 AUDIO
TITLE "Warm Hands,Cold Heart"
PERFORMER "Des'ree"
INDEX 01 47:11:65
TRACK 12 AUDIO
TITLE "Soul Paradise"
PERFORMER "Des'ree"
INDEX 01 51:47:12
TRACK 13 AUDIO
TITLE "Fire"
PERFORMER "Des'ree"
INDEX 00 56:02:00
INDEX 01 56:12:00
[свернуть]

Лог проверки качества

AUDIOCHECKER v2.0 beta (build 457) - by Dester - [Ссылки могут видеть только зарегистрированные и активированные пользователи.]
[Only registered and activated users can see links.]
~~~~~~~~~~~~~~~~~~~~~~~~~~~~~~~~~~
-=== НЕ РЕДАКТИРУЙТЕ ЭТОТ ФАЙЛ! ===-

Путь: ...\1998 - Supernatural [ESCA 7333]

1 -=- Des'ree - Supernatural.flac -=- CDDA (100%)

18974852

---------------

PERFORMER: auCDtect Task Manager, ver. 1.6.0 RC1 build 1.6.0.1
Copyright © 2008-2010 y-soft. All rights reserved
[Ссылки могут видеть только зарегистрированные и активированные пользователи.]
[Only registered and activated users can see links.]

ANALYZER: auCDtect: CD records authenticity detector, version 0.8.2
Copyright © 2004 Oleg Berngardt. All rights reserved.
Copyright © 2004 Alexander Djourik. All rights reserved.


FILE: Des'ree - Supernatural.flac
Size: 433618699 Hash: 47CF91160485DA6A942AECE2B3F2665D Accuracy: -m8
Conclusion: CDDA 99%
Signature: 04AEBDABFFE016B5EE8015538F3DDC5241364F53
[свернуть]

Отчёт Dynamic Range Meter

Код:
foobar2000 1.6 / Замер динамического диапазона (DR) 1.1.1
Дата отчёта:		2020-09-15 22:48:46

--------------------------------------------------------------------------------
Анализ:   Des'ree / Supernatural
--------------------------------------------------------------------------------

DR         Пики         RMS           Продолжительность трека
--------------------------------------------------------------------------------
DR5       -0.26 дБ    -7.57 дБ      4:07 01-What's Your Sign?
DR7       -0.25 дБ    -9.30 дБ      4:45 02-God Only Knows
DR8       -0.26 дБ    -9.89 дБ      3:38 03-Life
DR8       -0.12 дБ    -9.52 дБ      4:12 04-Best Days
DR8       -0.26 дБ    -9.56 дБ      3:57 05-Proud To Be A Dread
DR10      -0.43 дБ   -14.21 дБ      4:53 06-I'm Kissing You
DR7       -0.64 дБ    -9.47 дБ      6:55 07-Indigo Daisies
DR7       -0.43 дБ    -9.77 дБ      4:14 08-Time
DR8       -0.26 дБ   -11.07 дБ      5:12 09-Down By The River
DR7       -0.26 дБ    -9.22 дБ      5:19 10-Darwin Star
DR6        0.00 дБ    -8.86 дБ      4:35 11-Warm Hands,Cold Heart
DR7       -0.19 дБ    -9.94 дБ      4:25 12-Soul Paradise
DR7        0.00 дБ    -9.46 дБ      3:50 13-Fire
--------------------------------------------------------------------------------

Количество треков:	13
Реальные значения DR:	DR7

Частота:			44100 Гц
Каналов:			2
Разрядность: 		16
Битрейт:			963 кбит/с
Кодек:			FLAC
================================================================================
[свернуть]

Спектр частот

[свернуть]

Скачать Des'ree - Supernatural

[Ссылки могут видеть только зарегистрированные и активированные пользователи.]
[Only registered and activated users can see links.]

password: sergych
[свернуть]

Контрольная сумма (хеш-сумма) архива

MD5: 00890fc223f89a0859820d9c2c2e5898
[свернуть]
My opinion of release: 10/10

Release info RInfo

В данном варианте японцы, как это у них часто бывает, добавили пару (11, 12) треков бонусом
__________________
TAIFUN.Wings of Soul


Последний раз редактировалось sergych, 27.11.2019 в 06:15. Причина: поправил deezer
Вверх
3 пользователя(ей) сказали cпасибо:
alexandro (05.01.2016), swint68 (10.07.2021), TAIFUN (07.07.2021)
 
  #2
Старый 05.07.2021, 22:35
sergych
Координатор
Досье
 
Аватар для sergych
По умолчанию Re: Des'ree - Supernatural

перезалил обновлённым рипом, добавил недостающий скан OBI
__________________
TAIFUN.Wings of Soul

Вверх
Пользователь сказал cпасибо:
TAIFUN (07.07.2021)
Похожие темы
Тема Автор Раздел Ответов Последнее сообщение
Саундтрек Supernatural - The Definitive Soundtrack Afula Саундтреки 0 29.04.2011 10:45


Метки
1998 , des'ree , funk , japan , r&b , soul , supernatural

Опции темы

Ваши права в разделе
Вы не можете создавать новые темы
Вы не можете отвечать в темах
Вы не можете прикреплять вложения
Вы не можете редактировать свои сообщения

Быстрый переход


Текущее время: 12:59. Часовой пояс GMT +3.

© 2008 - 2021 Taifun With Song
Powered by vBulletin® Version 3.8.10
Copyright ©2000 - 2021, vBulletin Solutions, Inc. Перевод: zCarot
При поддержке NIC.UA
Яндекс.Метрика
0.24440 сек. | MySQL: 17