TAIFUN With Song - качественная и редкая музыка
Навигация
Blues Rock К концу сороковых годов прошлого столетия в блюзе окончательно обосновалась электрогитара. Трудно сказать, что подтолкнуло многих блюзменов перейти с привычной акустической гитары на электрическую, но блюз с тех пор очень сильно изменился.

А знаете ли Вы, что...
Откуда взялось выражение «играть на нервах»?
«Когда древние врачи открыли значение нервов в организме человека, они назвали их по сходству со струнами музыкальных инструментов тем же словом — nervus. Отсюда возникло выражение для раздражающих действий — «играть на нервах».»
 
Опции темы

  #1
Старый 31.10.2019, 11:09
sergych
Координатор
Досье
 
Аватар для sergych
Релиз Dire Straits - Dire Straits


1978 - Dire Straits - Dire Straits




Исполнитель/Artist: Dire Straits
Альбом/Album: Dire Straits
Год/Year: 1978
Ремастеринг/Remaster: 1996
Жанр/Genre: Blues rock, rock
Страна/Country: Австралия
Рекорд-лейбл/Record label: Vertigo / Mercury Records
Номер в каталоге/Catalogue #: 800 051-2
Формат/Format: Free Lossless Audio Codec (*.flac)
Качество/Quality: Lossless
Тип рипа/RIP Type: image+.cue
Продолжительность/Length: 00:41:53
Источник/Source: Собственный рип
Размер/Size: 257.6 MB

Сканы в комплекте

Треклист

01. Down to the Waterline [0:04:00.37]
02. Water of Love [0:05:24.25]
03. Setting Me Up [0:03:20.33]
04. Six Blade Knife [0:04:10.70]
05. Southbound Again [0:02:59.07]
06. Sultans of Swing [0:05:36.13]
07. In the Gallery [0:06:15.57]
08. Wild West End [0:04:44.35]
09. Lions [0:04:56.43]
[свернуть]

Превью на YouTube

[свернуть]

Исполнители/Performers

John Illsley – bass guitar, vocals
David Knopfler – rhythm guitar, vocals
Mark Knopfler – vocals, lead and rhythm guitars
Pick Withers – drums
[свернуть]

EAC лог

Exact Audio Copy V1.3 from 2. September 2016

EAC extraction logfile from 26. October 2019, 10:40

Dire Straits / Dire Straits

Used drive : PIONEER DVD-RW DVR-220L Adapter: 1 ID: 0

Read mode : Secure
Utilize accurate stream : Yes
Defeat audio cache : Yes
Make use of C2 pointers : No

Read offset correction : 6
Overread into Lead-In and Lead-Out : No
Fill up missing offset samples with silence : Yes
Delete leading and trailing silent blocks : No
Null samples used in CRC calculations : Yes
Used interface : Installed external ASPI interface

Used output format : User Defined Encoder
Selected bitrate : 1024 kBit/s
Quality : High
Add ID3 tag : No
Command line compressor : C:\Program Files (x86)\Exact Audio Copy\Flac\flac.exe
Additional command line options : -6 -V -T "ARTIST=%artist%" -T "TITLE=%title%" -T "ALBUM=%albumtitle%" -T "DATE=%year%" -T "TRACKNUMBER=%tracknr%" -T "GENRE=%genre%" -T "COMMENT=%comment%" -T "BAND=%albuminterpret%" -T "ALBUMARTIST=%albuminterpret%" -T "COMPOSER=%composer%" %haslyrics%--tag-from-file=LYRICS="%lyricsfile%"%haslyrics% -T "DISCNUMBER=%cdnumber%" -T "TOTALDISCS=%totalcds%" -T "TOTALTRACKS=%numtracks%" %hascover%--picture="%coverfile%"%hascover% %source% -o %dest%


TOC of the extracted CD

Track | Start | Length | Start sector | End sector
---------------------------------------------------------
1 | 0:00.00 | 4:00.37 | 0 | 18036
2 | 4:00.37 | 5:24.25 | 18037 | 42361
3 | 9:24.62 | 3:20.33 | 42362 | 57394
4 | 12:45.20 | 4:10.70 | 57395 | 76214
5 | 16:56.15 | 2:59.07 | 76215 | 89646
6 | 19:55.22 | 5:36.13 | 89647 | 114859
7 | 25:31.35 | 6:15.57 | 114860 | 143041
8 | 31:47.17 | 4:44.35 | 143042 | 164376
9 | 36:31.52 | 4:56.43 | 164377 | 186619


Range status and errors

Selected range

Filename C:\mm\Dire Straits\1978(1996) - Dire Straits [800 051-2]\Dire Straits - Dire Straits.wav

Peak level 100.0 %
Extraction speed 6.7 X
Range quality 100.0 %
Test CRC 26A14417
Copy CRC 26A14417
Copy OK

No errors occurred


AccurateRip summary

Track 1 accurately ripped (confidence 28) [4DBF66F4] (AR v2)
Track 2 accurately ripped (confidence 28) [F86865F9] (AR v2)
Track 3 accurately ripped (confidence 28) [F5E4D581] (AR v2)
Track 4 accurately ripped (confidence 28) [BC576225] (AR v2)
Track 5 accurately ripped (confidence 28) [E9D79185] (AR v2)
Track 6 accurately ripped (confidence 28) [36EAE89A] (AR v2)
Track 7 accurately ripped (confidence 28) [27FBD0A3] (AR v2)
Track 8 accurately ripped (confidence 28) [F0A69A91] (AR v2)
Track 9 accurately ripped (confidence 28) [8C5413B9] (AR v2)

All tracks accurately ripped

End of status report
[свернуть]

Файл CUE

REM GENRE Rock
REM DATE 1978
REM DISCID 7909B809
REM COMMENT "ExactAudioCopy v1.3"
PERFORMER "Dire Straits"
TITLE "Dire Straits"
REM COMPOSER ""
FILE "Dire Straits - Dire Straits.flac" WAVE
TRACK 01 AUDIO
TITLE "Down to the Waterline"
PERFORMER "Dire Straits"
REM COMPOSER ""
INDEX 01 00:00:00
TRACK 02 AUDIO
TITLE "Water of Love"
PERFORMER "Dire Straits"
REM COMPOSER ""
INDEX 01 04:00:37
TRACK 03 AUDIO
TITLE "Setting Me Up"
PERFORMER "Dire Straits"
REM COMPOSER ""
INDEX 01 09:24:62
TRACK 04 AUDIO
TITLE "Six Blade Knife"
PERFORMER "Dire Straits"
REM COMPOSER ""
INDEX 01 12:45:20
TRACK 05 AUDIO
TITLE "Southbound Again"
PERFORMER "Dire Straits"
REM COMPOSER ""
INDEX 01 16:56:15
TRACK 06 AUDIO
TITLE "Sultans of Swing"
PERFORMER "Dire Straits"
REM COMPOSER ""
INDEX 01 19:55:22
TRACK 07 AUDIO
TITLE "In the Gallery"
PERFORMER "Dire Straits"
REM COMPOSER ""
INDEX 01 25:31:35
TRACK 08 AUDIO
TITLE "Wild West End"
PERFORMER "Dire Straits"
REM COMPOSER ""
INDEX 01 31:47:17
TRACK 09 AUDIO
TITLE "Lions"
PERFORMER "Dire Straits"
REM COMPOSER ""
INDEX 01 36:31:52
[свернуть]

Лог проверки качества

AUDIOCHECKER v2.0 beta (build 457) - by Dester - [Ссылки могут видеть только зарегистрированные и активированные пользователи.]
[Only registered and activated users can see links.]
~~~~~~~~~~~~~~~~~~~~~~~~~~~~~~~~~~
-=== НЕ РЕДАКТИРУЙТЕ ЭТОТ ФАЙЛ! ===-

Путь: ...\1978(1996) - Dire Straits [800 051-2]

1 -=- Dire Straits - Dire Straits.flac -=- MPEG (95%)

9900276

---------------
-----------------------

DON'T MODIFY THIS FILE

-----------------------

PERFORMER: auCDtect Task Manager, ver. 1.6.0 RC1 build 1.6.0.1
Copyright (c) 2008-2010 y-soft. All rights reserved
[Ссылки могут видеть только зарегистрированные и активированные пользователи.]
[Only registered and activated users can see links.]

ANALYZER: auCDtect: CD records authenticity detector, version 0.8.2
Copyright (c) 2004 Oleg Berngardt. All rights reserved.
Copyright (c) 2004 Alexander Djourik. All rights reserved.


FILE: Dire Straits - Dire Straits.flac
Size: 250690922 Hash: BC64B32243E3D324B186D193B41AA7CC Accuracy: -m8
Conclusion: CDDA 100%
Signature: BA2AD206C3A9EA36778CB8E361491D2880831326
[свернуть]

Спектр частот

[свернуть]

Скачать Dire Straits - Dire Straits

[Ссылки могут видеть только зарегистрированные и активированные пользователи.]
[Only registered and activated users can see links.]

password: sergych
[свернуть]

Контрольная сумма (хеш-сумма) архива

MD5: 6535e45acfc2de844a800e69158274c6
[свернуть]
My opinion of release: 10/10

Release info RInfo

Забавно, что проверяльщики разошлись в выводах о данном диске
__________________
TAIFUN.Wings of Soul

Вверх
4 пользователя(ей) сказали cпасибо:
burnett_s (01.11.2019), Guilli (31.10.2019), johnsilver (02.11.2019), TAIFUN (06.11.2019)
  #2
Старый 02.11.2019, 00:13
johnsilver
Меломан
Досье
 
Аватар для johnsilver
По умолчанию Re: Dire Straits - Dire Straits

Спасибо! sergych, интересно, а в чём "проверяльщики разошлись в выводах о данном диске"?

Вверх
  #3
Старый 02.11.2019, 00:22
sergych
Координатор
Досье
 
Аватар для sergych
По умолчанию Re: Dire Straits - Dire Straits

johnsilver, AUDIOCHECKER утверждает, что это - "MPEG (95%)", а auCDtectTaskManager - "CDDA 100%". Я поэтому оба лога вставил в соответствующем поле нашего релиз-мастера (обычно ограничиваюсь логом аудиочекера)
__________________
TAIFUN.Wings of Soul

Вверх
Пользователь сказал cпасибо:
johnsilver (09.11.2019)
  #4
Старый 09.11.2019, 01:04
johnsilver
Меломан
Досье
 
Аватар для johnsilver
По умолчанию Re: Dire Straits - Dire Straits

sergych, оба эти проверяльщика, одинаково идентифицируют этот релиз, если разбить его на треки, там всего 2-3 трека определяются как MPEG 95%, если уж заморочиться...

Вверх
Пользователь сказал cпасибо:
sergych (09.11.2019)
Похожие темы
Тема Автор Раздел Ответов Последнее сообщение
Сборник Dire Straits - Sultans Of Swing: The Very Best Of Dire Straits sergych Blues Rock 2 24.10.2019 15:26
Альбом Dire Straits - On Every Street sergych Rock 0 25.04.2015 15:47
Live Dire Straits - Live At The BBC sergych Blues Rock 0 25.03.2015 18:03
Live Dire Straits - On The Night sergych Blues Rock 0 25.07.2010 07:39


Метки
1978 , blues rock , dire straits , rock

Опции темы

Ваши права в разделе
Вы не можете создавать новые темы
Вы не можете отвечать в темах
Вы не можете прикреплять вложения
Вы не можете редактировать свои сообщения

Быстрый переход




Текущее время: 00:06. Часовой пояс GMT +3.
Powered by vBulletin® Version 3.8.10
Copyright ©2000 - 2019, vBulletin Solutions, Inc. Перевод: zCarot
© 2008 - 2019 Taifun With Song
Яндекс.Метрика