TAIFUN With Song - качественная и редкая музыка
Навигация
Disco Один из самых популярных танцевальных музыкальных стилей 70-х годов. Цель этой музыки была одна: любыми способами заставить людей выйти на танцплощадку, поэтому Disco преуспело главным образом как студийное творчество, увековеченное на пластинках, а далеко не как живые концертные шоу. Почти для всех произведений Disco характерен монотонный акцентированный ритм, фоновое звучание ведущих инструментов группы или оркестра (гитары, струнные, духовые) и достаточно выразительный вокал.

А знаете ли Вы, что...
Какой музыкант одобрил пытки заключённых в Гуантанамо своей музыкой?
«Для пыток заключённых в американской тюрьме на базе Гуантанамо нередко применяли композиции группы Metallica. Вокалист группы Джеймс Хэтфилд в интервью заявил, что не против такого использования музыки: «Мы мучили своих родителей и жён нашей музыкой много лет. Почему бы и не иракцев?».»
 
Опции темы

  #1
Старый 23.05.2013, 16:00
aheron
Релизёр
Досье
 
Аватар для aheron
Релиз Boney M. - Boonoonoonoos


1981 - Boney M. - Boonoonoonoos (1981) [Remastered 2007]





Исполнитель/Artist: Boney M.
Альбом/Album: Boonoonoonoos
Год/Year: 1981
Ремастеринг/Remaster: 2007
Жанр/Genre: Disco
Рекорд-лейбл/Record label: Sony BMG Music Entertainment, MSI. Made in Germany.
Каталог/Catalog #: 88697094802
Формат/Format: Free Lossless Audio Codec (*.flac)
Качество/Quality: Lossless
Тип рипа/RIP Type: image+.cue
Продолжительность/Length: 01:10:29
Источник/Source: Из интернета
Размер/Size: 493 MB

Сканы в комплекте

Треклист

01. Boney M. - Boonoonoonoos [4:41]
02. Boney M. - That's Boonoonoonoos / Train To Skaville / I Shall Sing [5:57]
03. Boney M. - Silly Confusion [7:19]
04. Boney M. - Ride To Agadir [5:12]
05. Boney M. - Jimmy [4:10]
06. Boney M. - African Moon [3:02]
07. Boney M. - We Kill The World (Don't Kill The World) [6:34]
08. Boney M. - Homeland Africa (Ship Ahoy) [4:21]
09. Boney M. - Malaika [3:27]
10. Boney M. - Consuela Biaz [4:37]
11. Boney M. - Breakaway [4:18]
12. Boney M. - Sad Movies [3:23]
13. Boney M. - Goodbye My Friend [5:26]
14. Boney M. - Felicidad (Margherita) (extended original version) (bonus track) [4:33]
15. Boney M. - Strange (bonus track) [3:30]
--------------------------------------------------------------
Total time: [1:10:29.744]
[свернуть]

EAC лог

Exact Audio Copy V0.99 prebeta 3 from 28. July 2007

EAC extraction logfile from 9. October 2007, 18:34

Boney M / Boonoonoonoos

Used drive : TSSTcorpCDDVDW SH-S203B Adapter: 6 ID: 0

Read mode : Secure
Utilize accurate stream : Yes
Defeat audio cache : Yes
Make use of C2 pointers : No

Read offset correction : 6
Overread into Lead-In and Lead-Out : No
Fill up missing offset samples with silence : Yes
Delete leading and trailing silent blocks : No
Null samples used in CRC calculations : Yes
Used interface : Installed external ASPI interface

Used output format : Monkey's Audio Lossless Encoder
Selected bitrate : Fast Lossless Compression

Quality : High
Add ID3 tag : No
Command line compressor : C:\Program Files\Monkey's Audio\MAC.exe
Use compression offset : 48

TOC of the extracted CD
Track | Start | Length | Start sector | End sector
---------------------------------------------------------
1 | 0:00.32 | 4:40.40 | 32 | 21071
2 | 4:40.72 | 5:56.45 | 21072 | 47816
3 | 10:37.42 | 7:18.70 | 47817 | 80736
4 | 17:56.37 | 5:11.38 | 80737 | 104099
5 | 23:08.00 | 4:10.15 | 104100 | 122864
6 | 27:18.15 | 3:02.07 | 122865 | 136521
7 | 30:20.22 | 6:33.50 | 136522 | 166046
8 | 36:53.72 | 4:21.15 | 166047 | 185636
9 | 41:15.12 | 3:27.15 | 185637 | 201176
10 | 44:42.27 | 4:37.08 | 201177 | 221959
11 | 49:19.35 | 4:18.27 | 221960 | 241336
12 | 53:37.62 | 3:23.23 | 241337 | 256584
13 | 57:01.10 | 5:26.03 | 256585 | 281037
14 | 62:27.13 | 4:33.27 | 281038 | 301539
15 | 67:00.40 | 3:29.40 | 301540 | 317254

Range status and errors

Selected range

Filename C:\uTorrent\CD\Boney M\Boonoonoonoos\Boney M - Boonoonoonoos.wav

Peak level 99.8 %
Range quality 100.0 %
Copy CRC B4E77B2A
Copy OK

No errors occurred
AccurateRip summary

None of the tracks are present in the AccurateRip database

End of status report
[свернуть]

Лог проверки качества

-----------------------

DON'T MODIFY THIS FILE

-----------------------

PERFORMER: auCDtect Task Manager, ver. 1.6.0 RC1 build 1.6.0.1
Copyright © 2008-2010 y-soft. All rights reserved
[Ссылки могут видеть только зарегистрированные и активированные пользователи.]
[Only registered and activated users can see links.]

ANALYZER: auCDtect: CD records authenticity detector, version 0.8.2
Copyright © 2004 Oleg Berngardt. All rights reserved.
Copyright © 2004 Alexander Djourik. All rights reserved.


FILE: Boney M - Boonoonoonoos.flac
Size: 502826415 Hash: 170BEB11883BBA1A0F9AC25626D773C0 Accuracy: -m0
Conclusion: CDDA 100%
[свернуть]

Скачать Boney M. - Boonoonoonoos

Яндекс.Диск
[Ссылки могут видеть только зарегистрированные и активированные пользователи.]
[Only registered and activated users can see links.]
[свернуть]

aheron вне форума  
Вверх
4 пользователя(ей) сказали cпасибо:
odushv (12.04.2017), sergych (26.05.2013), unknow5oldier (21.05.2020), VladislavUdalov (25.11.2017)
 
Похожие темы
Тема Автор Раздел Ответов Последнее сообщение
Альбом Boney M. - Christmas With Boney M aheron Disco 0 25.05.2013 00:51
Альбом Boney M. - Eye Dance aheron Disco 0 25.05.2013 00:01
Альбом Boney M. - 10 000 Lightyears aheron Disco 1 24.05.2013 00:39
Альбом Boney M. - Take The Heat Off Me aheron Disco 0 23.05.2013 10:59


Опции темы

Ваши права в разделе
Вы не можете создавать новые темы
Вы не можете отвечать в темах
Вы не можете прикреплять вложения
Вы не можете редактировать свои сообщения

Быстрый переход


Текущее время: 17:33. Часовой пояс GMT +3.

©2008 - 2023 Taifun With Song
Powered by vBulletin® Version 3.8.10
Copyright ©2000 - 2023, vBulletin Solutions, Inc. Перевод: zCarot
При поддержке NIC.UA
0.12929 сек. | MySQL: 17