TAIFUN With Song - качественная и редкая музыка
Навигация
Pop Rock Поп-рок — жанр музыки, объединяющий элементы поп-музыки и рок-музыки. Песни характеризуются простой структурой, запоминающимися мелодиями, повторением музыкальных фраз (от попа), использованием в качестве основных инструментов электрогитар и ударных и агрессивным настроением (от рока).

А знаете ли Вы, что...
В каком стиле играет группа, вокалистом которой является попугай?
«Единственная в мире группа, вокалистом которой является птица — попугай по кличке Вальдо, играет в стиле дэт-метал и называется Hatebeak. К настоящему времени группа выпустила три альбома, однако проект существует только в студии и концертов не даёт. Второй альбом Hatebeak записали с дэтграйнд-коллективом Caninus, в котором солировали два питбультерьера.»
 
Опции темы

  #1
Старый 16.02.2013, 09:55
sergych
Координатор
Досье
 
Аватар для sergych
FLAC Jeff Lynne - Long Wave


2012 - Jeff Lynne - Long Wave




Исполнитель/Artist: Jeff Lynne
Альбом/Album: Long Wave
Год/Year: 2012
Жанр/Genre: Rock, Traditional Pop, Rock'n'Roll
Страна/Country: Italy
Рекорд-лейбл/Record label: Big Trilby Records
Номер в каталоге/Catalogue #: FR CD 569
Формат/Format: Free Lossless Audio Codec (*.flac)
Качество/Quality: Lossless
Тип рипа/RIP Type: image+.cue



Продолжительность/Length: 00:29:57
Источник/Source: Собственный рип
Размер/Size: 226.2 MB

Сканы в комплекте

Треклист

01 - She (Charles Aznavour, Herbert Kretzmer)
02 - If I Loved You (Richard Rodgers, Oscar Hammerstein)
03 - So Sad (Don Everly)
04 - Mercy, Mercy (Don Covay, Ronald Dean Miller)
05 - Running Scared (Roy Orbison, Joe Melson)
06 - Bewitched, Bothered and Bewildered (Richard Rodgers, Lorenz Hart)
07 - Smile (Charlie Chaplin, John Turner, Geoffrey Parsons)
08 - At Last (Mack Gordon, Harry Warren)
09 - Love Is A Many Splendored Thing (Sammy Fain, Paul Francis Webster)
10 - Let It Rock (Chuck Berry)
11 - Beyond The Sea (Jack Lawrence, Charles Trenet)

Bonus:
12 - Jody [bonus] (Del Shannon)
[свернуть]

youtube.com

[свернуть]

EAC лог

Exact Audio Copy V1.0 beta 3 from 29. August 2011

EAC extraction logfile from 15. December 2014, 20:57

Jeff Lynne / Long Wave

Used drive : ATAPI iHAS124 D Adapter: 0 ID: 2

Read mode : Secure
Utilize accurate stream : Yes
Defeat audio cache : Yes
Make use of C2 pointers : No

Read offset correction : 6
Overread into Lead-In and Lead-Out : No
Fill up missing offset samples with silence : Yes
Delete leading and trailing silent blocks : No
Null samples used in CRC calculations : Yes
Used interface : Installed external ASPI interface

Used output format : User Defined Encoder
Selected bitrate : 1024 kBit/s
Quality : High
Add ID3 tag : No
Command line compressor : C:\Program Files (x86)\Exact Audio Copy\Flac\flac.exe
Additional command line options : -6 -V -T "ARTIST=%artist%" -T "TITLE=%title%" -T "ALBUM=%albumtitle%" -T "DATE=%year%" -T "TRACKNUMBER=%tracknr%" -T "GENRE=%genre%" -T "COMMENT=%comment%" -T "BAND=%albuminterpret%" -T "COMPOSER=%composer%" %haslyrics%--tag-from-file=LYRICS="%lyricsfile%"%haslyrics% -T "DISCNUMBER=%cdnumber%" -T "TOTALDISCS=%totalcds%" -T "TOTALTRACKS=%numtracks%" %hascover%--picture="%coverfile%"%hascover% %source% -o %dest%


TOC of the extracted CD

Track | Start | Length | Start sector | End sector
---------------------------------------------------------
1 | 0:00.00 | 2:41.39 | 0 | 12113
2 | 2:41.39 | 2:21.55 | 12114 | 22743
3 | 5:03.19 | 2:33.06 | 22744 | 34224
4 | 7:36.25 | 2:53.07 | 34225 | 47206
5 | 10:29.32 | 2:10.33 | 47207 | 56989
6 | 12:39.65 | 2:20.53 | 56990 | 67542
7 | 15:00.43 | 2:32.32 | 67543 | 78974
8 | 17:33.00 | 2:34.00 | 78975 | 90524
9 | 20:07.00 | 2:30.28 | 90525 | 101802
10 | 22:37.28 | 1:52.01 | 101803 | 110203
11 | 24:29.29 | 2:57.44 | 110204 | 123522
12 | 27:26.73 | 2:30.09 | 123523 | 134781


Range status and errors

Selected range

Filename C:\mm\Jeff Lynne\2012 - Long Wave [FR CD 569]\Jeff Lynne - Long Wave.wav

Peak level 100.0 %
Extraction speed 8.1 X
Range quality 99.9 %
Test CRC C5CE2BC6
Copy CRC C5CE2BC6
Copy OK

No errors occurred


AccurateRip summary

Track 1 accurately ripped (confidence 2) [A48B2B6B] (AR v2)
Track 2 accurately ripped (confidence 2) [8F296EB8] (AR v2)
Track 3 accurately ripped (confidence 2) [B28453BE] (AR v2)
Track 4 accurately ripped (confidence 2) [4C8C55C7] (AR v2)
Track 5 accurately ripped (confidence 2) [F05ADDAF] (AR v2)
Track 6 accurately ripped (confidence 2) [96107BB0] (AR v2)
Track 7 accurately ripped (confidence 2) [9E7C69DD] (AR v2)
Track 8 accurately ripped (confidence 2) [4A08A5E6] (AR v2)
Track 9 accurately ripped (confidence 2) [3A83C6E3] (AR v2)
Track 10 accurately ripped (confidence 2) [15AF33BC] (AR v2)
Track 11 accurately ripped (confidence 2) [55E81986] (AR v2)
Track 12 accurately ripped (confidence 2) [2742A237] (AR v2)

All tracks accurately ripped

End of status report
[свернуть]

Файл CUE

REM GENRE "Pop Rock"
REM DATE 2012
REM DISCID 9107050C
REM COMMENT "ExactAudioCopy v1.0b3"
PERFORMER "Jeff Lynne"
TITLE "Long Wave"
FILE "Jeff Lynne - Long Wave.flac" WAVE
TRACK 01 AUDIO
TITLE "She"
PERFORMER "Jeff Lynne"
INDEX 01 00:00:00
TRACK 02 AUDIO
TITLE "If I Loved You"
PERFORMER "Jeff Lynne"
INDEX 01 02:41:39
TRACK 03 AUDIO
TITLE "So Sad"
PERFORMER "Jeff Lynne"
INDEX 01 05:03:19
TRACK 04 AUDIO
TITLE "Mercy, Mercy"
PERFORMER "Jeff Lynne"
INDEX 01 07:36:25
TRACK 05 AUDIO
TITLE "Running Scared"
PERFORMER "Jeff Lynne"
INDEX 01 10:29:32
TRACK 06 AUDIO
TITLE "Bewitched, Bothered and Bewildered"
PERFORMER "Jeff Lynne"
INDEX 01 12:39:65
TRACK 07 AUDIO
TITLE "Smile"
PERFORMER "Jeff Lynne"
INDEX 01 15:00:43
TRACK 08 AUDIO
TITLE "At Last"
PERFORMER "Jeff Lynne"
INDEX 01 17:33:00
TRACK 09 AUDIO
TITLE "Love Is A Many Splendored Thing"
PERFORMER "Jeff Lynne"
INDEX 01 20:07:00
TRACK 10 AUDIO
TITLE "Let It Rock"
PERFORMER "Jeff Lynne"
INDEX 01 22:37:28
TRACK 11 AUDIO
TITLE "Beyond The Sea"
PERFORMER "Jeff Lynne"
INDEX 01 24:29:29
TRACK 12 AUDIO
TITLE "Jody [bonus]"
PERFORMER "Jeff Lynne"
INDEX 00 27:22:74
INDEX 01 27:26:73
[свернуть]

Лог проверки качества

AUDIOCHECKER v2.0 beta (build 457) - by Dester - [Ссылки могут видеть только зарегистрированные и активированные пользователи.]
[Only registered and activated users can see links.]
~~~~~~~~~~~~~~~~~~~~~~~~~~~~~~~~~~
-=== НЕ РЕДАКТИРУЙТЕ ЭТОТ ФАЙЛ! ===-

Путь: ...\2012 - Long Wave [FR CD 569]

1 -=- Jeff Lynne - Long Wave.flac -=- CDDA (99%)

226463956
[свернуть]

Спектр частот

[свернуть]

Скачать Jeff Lynne - Long Wave

[Ссылки могут видеть только зарегистрированные и активированные пользователи.]
[Only registered and activated users can see links.]

password: sergych
[свернуть]
My rating to this release: 10/10

Release info RInfo

Long Wave is the second solo album recorded by Jeff Lynne. released on 8 October (UK) and 9 October 2012 (US). The album contains cover versions of songs that influenced Lynne's songwriting whilst growing up and residing in Birmingham, it was recorded between 2010 and 2012. The album debuted at number 7 on the UK Albums Chart and at number 1 on the UK Top 40 Independent Albums Chart, then also at number 133 on the US Billboard 200 albums chart, at number 33 on the Billboard Top Independent Albums chart and at number 48 on the Billboard Top Rock Albums chart.

"At Last" is scheduled to be the first UK and "Mercy Mercy" the first US single issued from the album.

Lynne said of the album:

I call this new album Long Wave because all of the songs I sing on it are the ones heard on long wave radio when I was a kid growing up in Birmingham, UK. These songs take me back to that feeling of freedom in those days and summon up the feeling of first hearing those powerful waves of music coming in on my old crystal set. My dad also had the radio on all the time, so some of these songs have been stuck in my head for 50 years. You can only imagine how great it felt to finally get them out of my head after all these years.
__________________
TAIFUN.Wings of Soul


Последний раз редактировалось sergych, 15.12.2014 в 18:13. Причина: перезаливка убитого
sergych вне форума  
Вверх
4 пользователя(ей) сказали cпасибо:
aheron (16.02.2013), lures (19.07.2023), swint68 (31.07.2023), TAIFUN (17.02.2013)
 
  #2
Старый 17.12.2014, 01:28
TAIFUN
Admin
Досье
 
Аватар для TAIFUN
По умолчанию Re: Jeff Lynne - Long Wave

Перезалито автором релиза.
__________________
FAQ по форуму
Правила форума
Mare liberum apertum - Море открыто для всех
Нет на земле живого существа столь жёсткого, крутого, адски злого, чтоб не могла хотя на час один в нём музыка свершить переворота.

TAIFUN вне форума  
Вверх
2 пользователя(ей) сказали cпасибо:
Bumbum (17.12.2014), sergych (17.12.2014)
  #3
Старый 19.07.2023, 06:58
lures
Пользователь
Досье
 
Аватар для lures
По умолчанию Re: Jeff Lynne - Long Wave

Great album. I hope most of you can dig it, really great Jeff !!!
Thank you Typhoon.

lures вне форума  
Вверх
Похожие темы
Тема Автор Раздел Ответов Последнее сообщение
Сборник Jeff Lynne - A Message From The Country PUPOKIN Progressive Rock 2 23.07.2023 11:35
Релиз Jeff Mills - The Power PUPOKIN Techno 0 04.06.2011 09:11
Альбом Jeff Lorber - Worth Waiting For PUPOKIN Jazz и Blues 0 13.09.2010 09:58
BK Presents The Nu Wave PUPOKIN House 0 15.09.2008 11:03


Метки
2012 , elo , jeff lynne , long wave , rock , rock'n'roll , traditional pop

Опции темы

Ваши права в разделе
Вы не можете создавать новые темы
Вы не можете отвечать в темах
Вы не можете прикреплять вложения
Вы не можете редактировать свои сообщения

Быстрый переход


Текущее время: 15:28. Часовой пояс GMT +3.

©2008 - 2024 Taifun With Song
Powered by vBulletin® Version 3.8.10
Copyright ©2000 - 2024, vBulletin Solutions, Inc. Перевод: zCarot
При поддержке NIC.UA
0.67475 сек. | MySQL: 17