TAIFUN With Song - качественная и редкая музыка
Навигация
Blues Rock К концу сороковых годов прошлого столетия в блюзе окончательно обосновалась электрогитара. Трудно сказать, что подтолкнуло многих блюзменов перейти с привычной акустической гитары на электрическую, но блюз с тех пор очень сильно изменился.

А знаете ли Вы, что...
Кто такой Сироб Вокищнеберг, упомянутый в описании альбома «Яблокитай» группы «Наутилус Помпилиус»?
«В описании альбома «Яблокитай» группы «Наутилус Помпилиус» указан некий профессор Сироб Вокищнеберг, играющий на реверсах. Этот таинственный человек никто иной, как Борис Гребенщиков, записанный наоборот. Таким образом удачно обыграли его работу с реверсами — прокручиванием музыкальных фрагментов в обратном направлении.»
 
Опции темы

  #1
Старый 18.08.2013, 18:02
sergych
Координатор
Досье
 
Аватар для sergych
FLAC Fleetwood Mac - Mirage


1982 - Fleetwood Mac - Mirage




Исполнитель/Artist: Fleetwood Mac
Альбом/Album: Mirage
Год/Year: 1982
Ремастеринг/Remaster: 2007
Жанр/Genre: blues rock, pop rock, soft rock
Страна/Country: Россия
Рекорд-лейбл/Record label: Warner Bros. Records / Никитин
Номер в каталоге/Catalogue #: 4670001543002
Формат/Format: Free Lossless Audio Codec (*.flac)
Качество/Quality: Lossless
Тип рипа/RIP Type: image+.cue
Продолжительность/Length: 00:43:21
Источник/Source: Собственный рип
Размер/Size: 144.4 MB

Сканы в комплекте

Треклист

01. Love In Store [0:03:17.10]
02. Can't Go Back [0:02:44.47]
03. That's Alright [0:03:10.68]
04. Book Of Love [0:03:23.17]
05. Gypsy [0:04:28.73]
06. Only Over You [0:04:10.45]
07. Empire State [0:02:53.50]
08. Straight Back [0:04:13.37]
09. Hold Me [0:03:46.50]
10. Oh Diane [0:02:37.53]
11. Eyes Of The World [0:03:48.05]
12. Wish You Were Here [0:04:46.17]
[свернуть]

youtube.com

[свернуть]

Исполнители/Performers

Lindsey Buckingham – guitar, vocals, keyboards
Stevie Nicks – vocals
Christine McVie – keyboards, vocals
John McVie – bass guitar
Mick Fleetwood – drums, percussion

Additional personnel:

Ray Lindsey – additional guitar on "Straight Back"
[свернуть]

EAC лог

Exact Audio Copy V1.6 from 23. October 2020

EAC extraction logfile from 24. April 2024, 3:46

Fleetwood Mac / Mirage

Used drive : PIONEER DVD-RW DVR-220L Adapter: 1 ID: 0

Read mode : Secure
Utilize accurate stream : Yes
Defeat audio cache : Yes
Make use of C2 pointers : No

Read offset correction : 6
Overread into Lead-In and Lead-Out : No
Fill up missing offset samples with silence : Yes
Delete leading and trailing silent blocks : No
Null samples used in CRC calculations : Yes
Used interface : Native Win32 interface for Win NT & 2000

Used output format : User Defined Encoder
Selected bitrate : 1024 kBit/s
Quality : High
Add ID3 tag : No
Command line compressor : C:\Program Files (x86)\Exact Audio Copy\Flac\flac.exe
Additional command line options : -8 -V %source%


TOC of the extracted CD

Track | Start | Length | Start sector | End sector
---------------------------------------------------------
1 | 0:00.33 | 3:17.10 | 33 | 14817
2 | 3:17.43 | 2:44.47 | 14818 | 27164
3 | 6:02.15 | 3:10.68 | 27165 | 41482
4 | 9:13.08 | 3:23.17 | 41483 | 56724
5 | 12:36.25 | 4:28.73 | 56725 | 76897
6 | 17:05.23 | 4:10.45 | 76898 | 95692
7 | 21:15.68 | 2:53.50 | 95693 | 108717
8 | 24:09.43 | 4:13.37 | 108718 | 127729
9 | 28:23.05 | 3:46.50 | 127730 | 144729
10 | 32:09.55 | 2:37.53 | 144730 | 156557
11 | 34:47.33 | 3:48.05 | 156558 | 173662
12 | 38:35.38 | 4:46.17 | 173663 | 195129


Range status and errors

Selected range

Filename C:\Fleetwood Mac\1982(2007) - Mirage [4670001543002]\Mirage.wav

Peak level 100.0 %
Extraction speed 6.9 X
Range quality 100.0 %
Test CRC B34A8456
Copy CRC B34A8456
Copy OK

No errors occurred


AccurateRip summary

Track 1 accurately ripped (confidence 2) [C28F1080] (AR v2)
Track 2 accurately ripped (confidence 2) [1844146F] (AR v2)
Track 3 accurately ripped (confidence 2) [8EADBAC7] (AR v2)
Track 4 accurately ripped (confidence 2) [53765653] (AR v2)
Track 5 accurately ripped (confidence 2) [13F658EB] (AR v2)
Track 6 accurately ripped (confidence 2) [DE9815A4] (AR v2)
Track 7 accurately ripped (confidence 2) [30ACDE42] (AR v2)
Track 8 accurately ripped (confidence 2) [83BDE484] (AR v2)
Track 9 accurately ripped (confidence 2) [9FE9A239] (AR v2)
Track 10 accurately ripped (confidence 2) [1D8EACB3] (AR v2)
Track 11 accurately ripped (confidence 2) [D72A3D27] (AR v2)
Track 12 accurately ripped (confidence 2) [AAAF83B5] (AR v2)

All tracks accurately ripped

End of status report

---- CUETools DB Plugin V2.1.6

[CTDB TOCID: emYfSYJa1Dh8z7kYN_isbwXM2GY-] found
Submit result: emYfSYJa1Dh8z7kYN_isbwXM2GY- has been confirmed
Track | CTDB Status
1 | (673/685) Accurately ripped, or (2/685) differs in 1580 samples @03:15:59-03:15:62
2 | (675/685) Accurately ripped, or (2/685) differs in 1848 samples @02:43:11-02:43:14
3 | (674/685) Accurately ripped, or (2/685) differs in 945 samples @03:10:12-03:10:14
4 | (671/685) Accurately ripped, or (2/685) differs in 1708 samples @03:22:61-03:22:64
5 | (674/685) Accurately ripped
6 | (675/685) Accurately ripped
7 | (678/685) Accurately ripped
8 | (670/685) Accurately ripped, or (2/685) differs in 1077 samples @04:12:51-04:12:53
9 | (670/685) Accurately ripped, or (2/685) differs in 1272 samples @03:45:42-03:45:44
10 | (674/685) Accurately ripped
11 | (667/685) Accurately ripped
12 | (667/685) Accurately ripped


==== Log checksum BF336AF5AD50B503B5BFD30EE63C67207EC76510D109C6A489747F8E74359705 ====
[свернуть]

Лог проверки качества

AUDIOCHECKER v2.0 beta (build 457) - by Dester - [Ссылки могут видеть только зарегистрированные и активированные пользователи.]
[Only registered and activated users can see links.]
~~~~~~~~~~~~~~~~~~~~~~~~~~~~~~~~~~
-=== DO NOT EDIT THIS FILE! ===-

Путь: ...\1982(2007) - Mirage [4670001543002]

1 -=- Mirage.flac -=- MPEG (95%)

197680196

====================

-----------------------

DON'T MODIFY THIS FILE

-----------------------

PERFORMER: auCDtect Task Manager, ver. 1.6.0 RC1 build 1.6.0.1
Copyright © 2008-2010 y-soft. All rights reserved
[Ссылки могут видеть только зарегистрированные и активированные пользователи.]
[Only registered and activated users can see links.]

ANALYZER: auCDtect: CD records authenticity detector, version 0.8.2
Copyright © 2004 Oleg Berngardt. All rights reserved.
Copyright © 2004 Alexander Djourik. All rights reserved.


FILE: Mirage.flac
Size: 273867337 Hash: 7BB29A144D0B01525AD5A84746018205 Accuracy: -m8
Conclusion: CDDA 100%
Signature: DAA6D2544E3CFC8A476259FDEF5FA6F5E7123575
[свернуть]

Отчёт Dynamic Range Meter

Код:
foobar2000 2.0 / Замер динамического диапазона (DR) 1.1.1
Дата отчёта:		2024-04-24 10:35:28

--------------------------------------------------------------------------------
Анализ:   Fleetwood Mac / Mirage
--------------------------------------------------------------------------------

DR         Пики         RMS           Продолжительность трека
--------------------------------------------------------------------------------
DR13       0.00 дБ   -15.50 дБ      3:17 01-Love In Store
DR14       0.00 дБ   -15.03 дБ      2:45 02-Can’t Go Back
DR13      -0.01 дБ   -16.56 дБ      3:11 03-That’s Alright
DR13       0.00 дБ   -15.93 дБ      3:23 04-Book of Love
DR15       0.00 дБ   -16.78 дБ      4:29 05-Gypsy
DR14      -2.19 дБ   -18.74 дБ      4:11 06-Only Over You
DR14      -1.40 дБ   -17.47 дБ      2:54 07-Empire State
DR14      -1.55 дБ   -18.29 дБ      4:13 08-Straight Back
DR13      -1.08 дБ   -18.01 дБ      3:47 09-Hold Me
DR13      -3.28 дБ   -19.04 дБ      2:38 10-Oh Diane
DR11      -5.08 дБ   -17.66 дБ      3:48 11-Eyes of the World
DR14       0.00 дБ   -16.29 дБ      4:46 12-Wish You Were Here
--------------------------------------------------------------------------------

Количество треков:	12
Реальные значения DR:	DR13

Частота:			44100 Гц
Каналов:			2
Разрядность: 		16
Битрейт:			842 кбит/с
Кодек:			FLAC
================================================================================
[свернуть]

Скачать Fleetwood Mac - Mirage

[Ссылки могут видеть только зарегистрированные и активированные пользователи.]
[Only registered and activated users can see links.]

password: sergych
[свернуть]
My rating to this release: 10/10
__________________
TAIFUN.Wings of Soul


Последний раз редактировалось sergych, 04.06.2024 в 04:51. Причина: замена mp3 лосслесс рипом
sergych вне форума  
Вверх
3 пользователя(ей) сказали cпасибо:
Lighting1981 (04.06.2024), swint68 (07.06.2024), TAIFUN (10.06.2024)
 
  #2
Старый 04.06.2024, 04:57
sergych
Координатор
Досье
 
Аватар для sergych
По умолчанию Re: Fleetwood Mac - Mirage

заменил mp3 на lossless.
__________________
TAIFUN.Wings of Soul

sergych вне форума  
Вверх
Пользователь сказал cпасибо:
TAIFUN (10.06.2024)
Похожие темы
Тема Автор Раздел Ответов Последнее сообщение
Сборник Fleetwood Mac - Simply The Best sergych Blues Rock 1 03.05.2024 19:38
Альбом Fleetwood Mac - Say You Will sergych Blues Rock 1 13.06.2015 08:50
Альбом Fleetwood Mac - Behind The Mask sergych Blues Rock 0 14.08.2013 20:33
Релиз Maximilian Hecker - Mirage Of Bliss PUPOKIN Alternative Rock 0 30.07.2012 08:15
Альбом Camel - Mirage sergych Progressive Rock 0 14.08.2008 04:01


Метки
1982 , 2007 , blues , blues rock , fleetwood mac , mirage , pop rock , soft rock

Опции темы

Ваши права в разделе
Вы не можете создавать новые темы
Вы не можете отвечать в темах
Вы не можете прикреплять вложения
Вы не можете редактировать свои сообщения

Быстрый переход


Текущее время: 01:56. Часовой пояс GMT +3.

©2008 - 2024 Taifun With Song
Powered by vBulletin® Version 3.8.10
Copyright ©2000 - 2024, vBulletin Solutions, Inc. Перевод: zCarot
При поддержке NIC.UA
1.10945 сек. | MySQL: 17