TAIFUN With Song - качественная и редкая музыка
Навигация
Blues Rock К концу сороковых годов прошлого столетия в блюзе окончательно обосновалась электрогитара. Трудно сказать, что подтолкнуло многих блюзменов перейти с привычной акустической гитары на электрическую, но блюз с тех пор очень сильно изменился.

А знаете ли Вы, что...
Зачем в Англии 19 века надевали чехлы на ножки роялей?
«В пуританской Англии 19 века из общественной жизни старательно изгонялось всё, что могло показаться хоть сколько-нибудь эротичным. Так, во время концертов на ножки роялей надевали чехлы, чтобы никто, глядя на эти голые ножки, не задумался о чём-нибудь непристойном.»
 
Опции темы

  #1
Старый 19.06.2013, 21:15
sergych
Координатор
Досье
 
Аватар для sergych
FLAC Fleetwood Mac - Simply The Best


2001 - Fleetwood Mac - Simply The Best




Исполнитель/Artist: Fleetwood Mac
Альбом/Album: Simply The Best
Год/Year: 2001
Жанр/Genre: blues rock, rock
Страна/Country: Austria
Рекорд-лейбл/Record label: Columbia
Формат/Format: Free Lossless Audio Codec (*.flac)
Качество/Quality: Lossless
Тип рипа/RIP Type: image+.cue



Продолжительность/Length: 00:40:25
Источник/Source: Собственный рип
Размер/Size: 233.1 MB

Сканы в комплекте

Треклист

01. Albatross [0:03:13.33]
02. No Place To Go [0:03:21.52]
03. Merry Go Round [0:04:08.68]
04. Long Grey Mare [0:02:14.22]
05. Black Magic Woman [0:02:52.08]
06. Rambling Pony [0:02:41.12]
07. Watch Out! [0:04:14.60]
08. My Baby's Good To Me [0:02:50.55]
09. The World Keep On Turning [0:02:29.50]
10. Need Your Love So Bad [0:03:51.23]
11. Doctor Brown [0:03:44.40]
12. Love That Burns [0:05:02.65]
[свернуть]

youtube.com

[свернуть]

EAC лог

Exact Audio Copy V1.6 from 23. October 2020

EAC extraction logfile from 23. April 2024, 21:57

Fleetwood Mac / Simply the Best

Used drive : PIONEER DVD-RW DVR-220L Adapter: 1 ID: 0

Read mode : Secure
Utilize accurate stream : Yes
Defeat audio cache : Yes
Make use of C2 pointers : No

Read offset correction : 6
Overread into Lead-In and Lead-Out : No
Fill up missing offset samples with silence : Yes
Delete leading and trailing silent blocks : No
Null samples used in CRC calculations : Yes
Used interface : Native Win32 interface for Win NT & 2000

Used output format : User Defined Encoder
Selected bitrate : 1024 kBit/s
Quality : High
Add ID3 tag : No
Command line compressor : C:\Program Files (x86)\Exact Audio Copy\Flac\flac.exe
Additional command line options : -8 -V %source%


TOC of the extracted CD

Track | Start | Length | Start sector | End sector
---------------------------------------------------------
1 | 0:00.32 | 3:13.33 | 32 | 14539
2 | 3:13.65 | 3:21.52 | 14540 | 29666
3 | 6:35.42 | 4:08.68 | 29667 | 48334
4 | 10:44.35 | 2:14.22 | 48335 | 58406
5 | 12:58.57 | 2:52.08 | 58407 | 71314
6 | 15:50.65 | 2:41.12 | 71315 | 83401
7 | 18:32.02 | 4:14.60 | 83402 | 102511
8 | 22:46.62 | 2:50.55 | 102512 | 115316
9 | 25:37.42 | 2:29.50 | 115317 | 126541
10 | 28:07.17 | 3:51.23 | 126542 | 143889
11 | 31:58.40 | 3:44.40 | 143890 | 160729
12 | 35:43.05 | 5:02.65 | 160730 | 183444


Range status and errors

Selected range

Filename C:\Fleetwood Mac\2001 - Simply The Best [483724 9]\Simply the Best.wav

Peak level 100.0 %
Extraction speed 6.6 X
Range quality 100.0 %
Test CRC C388100E
Copy CRC C388100E
Copy OK

No errors occurred


AccurateRip summary

Track 1 accurately ripped (confidence 33) [3891E89C] (AR v2)
Track 2 accurately ripped (confidence 33) [4C49C5F8] (AR v2)
Track 3 accurately ripped (confidence 33) [1C9D00CA] (AR v2)
Track 4 accurately ripped (confidence 33) [CD65C0C0] (AR v2)
Track 5 accurately ripped (confidence 33) [4B18275F] (AR v2)
Track 6 accurately ripped (confidence 33) [119B6A3E] (AR v2)
Track 7 accurately ripped (confidence 33) [6141A195] (AR v2)
Track 8 accurately ripped (confidence 33) [1A720CEB] (AR v2)
Track 9 accurately ripped (confidence 33) [225B598B] (AR v2)
Track 10 accurately ripped (confidence 33) [F02C1E7B] (AR v2)
Track 11 accurately ripped (confidence 33) [26FC505E] (AR v2)
Track 12 accurately ripped (confidence 33) [9D9F7FDF] (AR v2)

All tracks accurately ripped

End of status report

---- CUETools DB Plugin V2.1.6

[CTDB TOCID: OyrngZBSXvAG1xduxQWw0p6eD3I-] found
Submit result: OyrngZBSXvAG1xduxQWw0p6eD3I- has been confirmed
Track | CTDB Status
1 | (345/347) Accurately ripped
2 | (347/347) Accurately ripped
3 | (347/347) Accurately ripped
4 | (347/347) Accurately ripped
5 | (347/347) Accurately ripped
6 | (347/347) Accurately ripped
7 | (347/347) Accurately ripped
8 | (347/347) Accurately ripped
9 | (347/347) Accurately ripped
10 | (345/347) Accurately ripped
11 | (346/347) Accurately ripped
12 | (345/347) Accurately ripped


==== Log checksum 04A71692760BBB61F9CBCB0D46C5A91BD9E3DF8F3C7090046BCFE85B2978F26E ====
[свернуть]

Файл CUE

REM GENRE Blues
REM DATE 2001
REM DISCID AE098D0C
REM COMMENT "ExactAudioCopy v1.6"
PERFORMER "Fleetwood Mac"
TITLE "Simply the Best"
REM COMPOSER ""
FILE "Simply the Best.flac" WAVE
TRACK 01 AUDIO
TITLE "Albatross"
PERFORMER "Fleetwood Mac"
REM COMPOSER ""
INDEX 00 00:00:00
INDEX 01 00:00:32
TRACK 02 AUDIO
TITLE "No Place to Go"
PERFORMER "Fleetwood Mac"
REM COMPOSER ""
INDEX 00 03:10:65
INDEX 01 03:13:65
TRACK 03 AUDIO
TITLE "Merry Go Round"
PERFORMER "Fleetwood Mac"
REM COMPOSER ""
INDEX 00 06:33:07
INDEX 01 06:35:42
TRACK 04 AUDIO
TITLE "Long Grey Mare"
PERFORMER "Fleetwood Mac"
REM COMPOSER ""
INDEX 00 10:42:22
INDEX 01 10:44:35
TRACK 05 AUDIO
TITLE "Black Magic Woman"
PERFORMER "Fleetwood Mac"
REM COMPOSER ""
INDEX 00 12:57:32
INDEX 01 12:58:57
TRACK 06 AUDIO
TITLE "Rambling Pony"
PERFORMER "Fleetwood Mac"
REM COMPOSER ""
INDEX 00 15:49:15
INDEX 01 15:50:65
TRACK 07 AUDIO
TITLE "Watch Out!"
PERFORMER "Fleetwood Mac"
REM COMPOSER ""
INDEX 00 18:30:25
INDEX 01 18:32:02
TRACK 08 AUDIO
TITLE "My Baby's Good to Me"
PERFORMER "Fleetwood Mac"
REM COMPOSER ""
INDEX 00 22:45:55
INDEX 01 22:46:62
TRACK 09 AUDIO
TITLE "The World Keep on Turning"
PERFORMER "Fleetwood Mac"
REM COMPOSER ""
INDEX 00 25:36:17
INDEX 01 25:37:42
TRACK 10 AUDIO
TITLE "Need Your Love So Bad"
PERFORMER "Fleetwood Mac"
REM COMPOSER ""
INDEX 00 28:05:32
INDEX 01 28:07:17
TRACK 11 AUDIO
TITLE "Doctor Brown"
PERFORMER "Fleetwood Mac"
REM COMPOSER ""
INDEX 00 31:55:45
INDEX 01 31:58:40
TRACK 12 AUDIO
TITLE "Love That Burns"
PERFORMER "Fleetwood Mac"
REM COMPOSER ""
INDEX 00 35:42:47
INDEX 01 35:43:05
[свернуть]

Лог проверки качества

AUDIOCHECKER v2.0 beta (build 457) - by Dester - [Ссылки могут видеть только зарегистрированные и активированные пользователи.]
[Only registered and activated users can see links.]
~~~~~~~~~~~~~~~~~~~~~~~~~~~~~~~~~~
-=== DO NOT EDIT THIS FILE! ===-

Путь: ...\2001 - Simply The Best [483724 9]

1 -=- Simply the Best.flac -=- CDDA (100%)

128713460

================

-----------------------

DON'T MODIFY THIS FILE

-----------------------

PERFORMER: auCDtect Task Manager, ver. 1.6.0 RC1 build 1.6.0.1
Copyright © 2008-2010 y-soft. All rights reserved
[Ссылки могут видеть только зарегистрированные и активированные пользователи.]
[Only registered and activated users can see links.]

ANALYZER: auCDtect: CD records authenticity detector, version 0.8.2
Copyright © 2004 Oleg Berngardt. All rights reserved.
Copyright © 2004 Alexander Djourik. All rights reserved.


FILE: Simply the Best.flac
Size: 234079658 Hash: 10BF0F195C9B0F45668FFCF286FBA91E Accuracy: -m8
Conclusion: CDDA 100%
Signature: A2EDE541EF3529F6D6814456958D6BAC877F10EE
[свернуть]

Отчёт Dynamic Range Meter

Код:
foobar2000 2.0 / Замер динамического диапазона (DR) 1.1.1
Дата отчёта:		2024-04-24 10:37:57

--------------------------------------------------------------------------------
Анализ:   Fleetwood Mac / Simply the Best
--------------------------------------------------------------------------------

DR         Пики         RMS           Продолжительность трека
--------------------------------------------------------------------------------
DR11      -0.30 дБ   -13.63 дБ      3:13 01-Albatross
DR12      -1.05 дБ   -15.00 дБ      3:22 02-No Place to Go
DR13      -0.01 дБ   -16.33 дБ      4:09 03-Merry Go Round
DR13      -1.27 дБ   -16.90 дБ      2:14 04-Long Grey Mare
DR13       0.00 дБ   -16.28 дБ      2:52 05-Black Magic Woman
DR11       0.00 дБ   -15.22 дБ      2:41 06-Rambling Pony
DR13       0.00 дБ   -16.04 дБ      4:15 07-Watch Out!
DR11      -2.79 дБ   -15.38 дБ      2:51 08-My Baby's Good to Me
DR15      -2.47 дБ   -21.29 дБ      2:30 09-The World Keep on Turning
DR13      -0.59 дБ   -18.29 дБ      3:51 10-Need Your Love So Bad
DR11       0.00 дБ   -12.43 дБ      3:45 11-Doctor Brown
DR16      -0.59 дБ   -21.22 дБ      5:03 12-Love That Burns
--------------------------------------------------------------------------------

Количество треков:	12
Реальные значения DR:	DR13

Частота:			44100 Гц
Каналов:			2
Разрядность: 		16
Битрейт:			765 кбит/с
Кодек:			FLAC
================================================================================
[свернуть]

Скачать Fleetwood Mac - Simply The Best

[Ссылки могут видеть только зарегистрированные и активированные пользователи.]
[Only registered and activated users can see links.]

password: sergych
[свернуть]
My rating to this release: 10/10

Release info RInfo

Крепенький сборник блюзовых вещей группы
__________________
TAIFUN.Wings of Soul


Последний раз редактировалось sergych, 03.05.2024 в 19:35. Причина: замена потрекового рипа на образ
sergych вне форума  
Вверх
2 пользователя(ей) сказали cпасибо:
aheron (19.06.2013), swint68 (07.06.2024)
 
  #2
Старый 03.05.2024, 19:38
sergych
Координатор
Досье
 
Аватар для sergych
По умолчанию Re: Fleetwood Mac - Simply The Best

заменил потрековый рип образом
__________________
TAIFUN.Wings of Soul

sergych вне форума  
Вверх
Пользователь сказал cпасибо:
TAIFUN (05.05.2024)
Похожие темы
Тема Автор Раздел Ответов Последнее сообщение
Релиз Simply Spa - Meditation PUPOKIN Ambient 0 25.01.2010 09:30
Simply Red выступят в Москве PUPOKIN Новости в мире музыки 0 26.10.2008 19:29


Метки
2001 , blues rock , fleetwood mac , rock , simply the best

Опции темы

Ваши права в разделе
Вы не можете создавать новые темы
Вы не можете отвечать в темах
Вы не можете прикреплять вложения
Вы не можете редактировать свои сообщения

Быстрый переход


Текущее время: 02:19. Часовой пояс GMT +3.

©2008 - 2024 Taifun With Song
Powered by vBulletin® Version 3.8.10
Copyright ©2000 - 2024, vBulletin Solutions, Inc. Перевод: zCarot
При поддержке NIC.UA
0.60197 сек. | MySQL: 17