TAIFUN With Song - качественная и редкая музыка
Навигация
Breakbeat & Breaks Основным критерием для определения Breakbeatа являются чистые, практически ничем не обработанные барабаны и перкуссия (за исключением разве что компрессии) и стандартный ритм 4/4. Сольники чаще всего ударяют на вторую и четвертую долю. Также в ритме может быть несколько дополнительных сбивок. Если говорить простым языком, то ритмическая основа Breakbeatа строится на смещении доли (синкопировании) некоторых ударных или всего куска ритма. Чаще всего синкопирование происходит на третьей доле. Впервые исторически этот метод применили барабанщики Джеймса Брауна.

А знаете ли Вы, что...
Кто написал сонату, в которой имитируется половой акт?
«Чешский авангардный композитор Эрвин Шульгоф в 1919 году написал Эротическую сонату, которая по сей день исполняется на музыкальных фестивалях. Фактически соната состоит из одной партии для женского голоса, имитирующего стоны и вздохи при половом акте.»
 
Опции темы

  #1
Старый 21.09.2010, 16:48
TAIFUN
Admin
Досье
 
Аватар для TAIFUN
320 Way Out West - Way Out West


1997 - Way Out West - Way Out West




Исполнитель/Artist: Way Out West
Альбом/Album: Way Out West
Год/Year: 1997
Жанр/Genre: Breakbeat, Progressive House, Progressive Trance
Рекорд-лейбл/Record label: Deconstruction / BMG
Формат/Format: MPEG Layer-3 (*.mp3)
Качество/Quality: CBR 320 kbps
Продолжительность/Length: 01:07:11
Размер/Size: 148 MB


Треклист

01. Blue
02. The Gift
03. Domination
04. Dancehall Tornado
05. Questions Never Answered
06. Sequoia
07. Ajare
08. Drive By
09. King Of The Funk
10. Earth
[свернуть]

Превью на YouTube

[свернуть]

Исполнители/Performers

Nick Warren - Written-By
Jody Wisternoff - Written-By
[свернуть]

Отчёт Dynamic Range Meter

Код:
foobar2000 1.3.17 / Dynamic Range Meter 1.1.1
log date: 2020-09-07 22:43:54

--------------------------------------------------------------------------------
Analyzed: Way Out West / Way Out West
--------------------------------------------------------------------------------

DR         Peak         RMS     Duration Track
--------------------------------------------------------------------------------
DR7        0.00 dB    -9.35 dB      5:17 ?-Blue
DR7        0.00 dB    -7.97 dB      7:21 ?-The Gift
DR5        0.00 dB    -5.93 dB      8:41 ?-Domination
DR6        0.00 dB    -8.05 dB      7:45 ?-Dancehall Tornado
DR6        0.00 dB    -7.07 dB      8:45 ?-Questions Never Answered
DR7        0.00 dB    -9.13 dB      8:01 ?-Sequoia
DR6        0.00 dB    -7.59 dB      5:45 ?-Ajare
DR5        0.00 dB    -7.29 dB      6:40 ?-Drive By
DR7        0.00 dB    -8.71 dB      5:39 ?-King Of The Funk
DR7        0.00 dB   -10.08 dB      3:17 ?-Earth
--------------------------------------------------------------------------------

Number of tracks:  10
Official DR value: DR6

Samplerate:        44100 Hz
Channels:          2
Bitrate:           320 kbps
Codec:             MP3
================================================================================
[свернуть]

Скачать Way Out West - Way Out West

[Ссылки могут видеть только зарегистрированные и активированные пользователи.]
[Only registered and activated users can see links.]
[свернуть]

Контрольная сумма (хеш-сумма) архива

MD5: e5ea7b1a4fb8a76c9f3287d12384de63
[свернуть]
My rating to this release: 10/10

Release info RInfo

Одна из музыкальных групп которой я восхищаюсь. Не спроста мой второй ник в интернете - Way Out West.
В двухтысячных их музыка оказывала на меня сильное влияние (позитивное). Мне всегда нравились музыканты, которые умеют гармонично совмещать звуки.
__________________
FAQ по форуму
Правила форума
Mare liberum apertum - Море открыто для всех
Нет на земле живого существа столь жёсткого, крутого, адски злого, чтоб не могла хотя на час один в нём музыка свершить переворота.


Последний раз редактировалось TAIFUN, 19.02.2024 в 10:52.
TAIFUN вне форума  
Вверх
Пользователь сказал cпасибо:
sergych (08.09.2020)
 
  #2
Старый 07.09.2020, 23:06
TAIFUN
Admin
Досье
 
Аватар для TAIFUN
По умолчанию Re: Way Out West - Way Out West

Архив перезалит, полное переоформление.
__________________
FAQ по форуму
Правила форума
Mare liberum apertum - Море открыто для всех
Нет на земле живого существа столь жёсткого, крутого, адски злого, чтоб не могла хотя на час один в нём музыка свершить переворота.

TAIFUN вне форума  
Вверх
2 пользователя(ей) сказали cпасибо:
sergych (08.09.2020), Асылбек (02.01.2022)
  #3
Старый 17.02.2024, 11:59
Serge987
Меломан
Досье
 
Аватар для Serge987
По умолчанию Re: Way Out West - Way Out West

Интересно послушать.

Serge987 вне форума  
Вверх
Похожие темы
Тема Автор Раздел Ответов Последнее сообщение
Релиз Goldroom - West Of The West PUPOKIN Зарубежная Поп-Музыка 0 29.09.2016 13:17
Сборник Led Zeppelin - How The West Was Won PUPOKIN Hard Rock 0 14.02.2010 09:22
Релиз Mr. Projectile - To The West PUPOKIN Ambient 0 11.01.2010 10:23
Релиз Ann West - Confidante PUPOKIN Pop Rock 0 10.01.2009 09:19
Биография Way Out West TAIFUN Club & Electronic Music [FAQ] 0 18.04.2008 04:59


Метки
1997 , breakbeat , progressive house , progressive trance , way out west

Опции темы

Ваши права в разделе
Вы не можете создавать новые темы
Вы не можете отвечать в темах
Вы не можете прикреплять вложения
Вы не можете редактировать свои сообщения

Быстрый переход


Текущее время: 02:19. Часовой пояс GMT +3.

©2008 - 2024 Taifun With Song
Powered by vBulletin® Version 3.8.10
Copyright ©2000 - 2024, vBulletin Solutions, Inc. Перевод: zCarot
При поддержке NIC.UA
0.39455 сек. | MySQL: 17