TAIFUN With Song - качественная и редкая музыка
Навигация
Power Metal Сложилось направление во второй половине 80-х годов XX века в Западной Европе. Отличается более высокой скоростью исполнения, чем «классический» хэви-метал и большей мелодичностью, чем спид-метал.

А знаете ли Вы, что...
Сколько музыкантов и композиторов произошло из семьи Бахов?
«Иоганн Себастьян Бах был не единственным талантом в своей семье. Бахи дали миру более 50 известных музыкантов и несколько замечательных композиторов. Сам Иоганн Себастьян был признан наиболее выдающимся из них намного позже своей смерти. В последние же годы жизни Иоганна Себастьяна его больше почитали за воспитание Бахов-младших, в первую очередь Карла Филиппа Эммануила, музыка которого была известнее.»
 
Опции темы

  #1
Старый 17.04.2022, 19:10
swint68
Релизёр
Досье
 
Аватар для swint68
FLAC Metal De Facto - Imperium Romanum


2019 - Metal De Facto - Imperium Romanum




Исполнитель/Artist: Metal De Facto
Альбом/Album: Imperium Romanum
Год/Year: 2019
Жанр/Genre: Power Metal
Страна/Country: Италия
Рекорд-лейбл/Record label: Rockshots Records
Номер в каталоге/Catalogue #: RS CD 072
Формат/Format: Free Lossless Audio Codec (*.flac)
Качество/Quality: Lossless
Тип рипа/RIP Type: image+.cue
Продолжительность/Length: 00:52:01
Источник/Source: Ilijan
Размер/Size: 440 MB

Сканы в комплекте

Треклист

01. The Conqueror
02. Legionnaires' Oath
03. Naturalis Historia
04. Inferno
05. Bacchanalia
06. Echoes In Eternity
07. Colosseum (Instrumental)
08. Ides Of March
09. The Ascending Of Jupiter
10. Germanicus
[свернуть]

Превью на YouTube

[свернуть]

EAC лог

Exact Audio Copy V1.3 from 2. September 2016

EAC extraction logfile from 18. December 2019, 14:23

Metal De Facto / Imperium Romanum

Used drive : ATAPI iHAS124 F Adapter: 2 ID: 0

Read mode : Secure
Utilize accurate stream : Yes
Defeat audio cache : Yes
Make use of C2 pointers : No

Read offset correction : 6
Overread into Lead-In and Lead-Out : No
Fill up missing offset samples with silence : Yes
Delete leading and trailing silent blocks : No
Null samples used in CRC calculations : Yes
Used interface : Installed external ASPI interface

Used output format : User Defined Encoder
Selected bitrate : 1024 kBit/s
Quality : High
Add ID3 tag : No
Command line compressor : C:\Program Files\FLAC\flac.exe
Additional command line options : -V -8 -T "Date=%year%" -T "Genre=%genre%" -T"COMMENT=Ripped by Ilijan [MeTaLMaDNeSS.TeaM]" -8 -V %source%


TOC of the extracted CD

Track | Start | Length | Start sector | End sector
---------------------------------------------------------
1 | 0:00.00 | 4:48.16 | 0 | 21615
2 | 4:48.16 | 4:08.49 | 21616 | 40264
3 | 8:56.65 | 5:53.39 | 40265 | 66778
4 | 14:50.29 | 4:16.48 | 66779 | 86026
5 | 19:07.02 | 4:33.05 | 86027 | 106506
6 | 23:40.07 | 4:56.26 | 106507 | 128732
7 | 28:36.33 | 3:07.61 | 128733 | 142818
8 | 31:44.19 | 6:18.49 | 142819 | 171217
9 | 38:02.68 | 4:26.68 | 171218 | 191235
10 | 42:29.61 | 9:31.18 | 191236 | 234078


Range status and errors

Selected range

Filename D:\Vknish+g.y.m.+angelito (a.k.a. deminbek)=3.14дарасы (Upload On Rutracker, DIE!!!)\Metal De Facto - Imperium Romanum.wav

Peak level 97.7 %
Extraction speed 8.4 X
Range quality 100.0 %
Test CRC 6AE88ECB
Copy CRC 6AE88ECB
Copy OK

No errors occurred


AccurateRip summary

Track 1 not present in database
Track 2 not present in database
Track 3 not present in database
Track 4 not present in database
Track 5 not present in database
Track 6 not present in database
Track 7 not present in database
Track 8 not present in database
Track 9 not present in database
Track 10 not present in database

None of the tracks are present in the AccurateRip database

End of status report

---- CUETools DB Plugin V2.1.6

[CTDB TOCID: 0KukAdYdYhJBMhR06fGlyRkwS08-] disk not present in database
Submit result: 0KukAdYdYhJBMhR06fGlyRkwS08- has been uploaded


==== Log checksum 491E516F71B9295C9B3263B00B11AA6E64EE9561E5260824BBB61F7DD57256DB ====
[свернуть]

Файл CUE

REM GENRE "Power Metal"
REM DATE 2019
REM DISCID 860C310A
REM COMMENT "ExactAudioCopy v1.3"
PERFORMER "Metal De Facto"
TITLE "Imperium Romanum"
FILE "Metal De Facto - Imperium Romanum.flac" WAVE
TRACK 01 AUDIO
TITLE "The Conqueror"
PERFORMER "Metal De Facto"
INDEX 01 00:00:00
TRACK 02 AUDIO
TITLE "Legionnaires' Oath"
PERFORMER "Metal De Facto"
INDEX 01 04:48:16
TRACK 03 AUDIO
TITLE "Naturalis Historia"
PERFORMER "Metal De Facto"
INDEX 01 08:56:65
TRACK 04 AUDIO
TITLE "Inferno"
PERFORMER "Metal De Facto"
INDEX 01 14:50:29
TRACK 05 AUDIO
TITLE "Bacchanalia"
PERFORMER "Metal De Facto"
INDEX 01 19:07:02
TRACK 06 AUDIO
TITLE "Echoes In Eternity"
PERFORMER "Metal De Facto"
INDEX 01 23:40:07
TRACK 07 AUDIO
TITLE "Colosseum"
PERFORMER "Metal De Facto"
INDEX 01 28:36:33
TRACK 08 AUDIO
TITLE "Ides Of March"
PERFORMER "Metal De Facto"
INDEX 01 31:44:19
TRACK 09 AUDIO
TITLE "The Ascending Of Jupiter"
PERFORMER "Metal De Facto"
INDEX 01 38:02:68
TRACK 10 AUDIO
TITLE "Germanicus"
PERFORMER "Metal De Facto"
INDEX 01 42:29:61
[свернуть]

Лог проверки качества

-----------------------

DON'T MODIFY THIS FILE

-----------------------

PERFORMER: auCDtect Task Manager, ver. 1.6.0 RC1 build 1.6.0.1
Copyright © 2008-2010 y-soft. All rights reserved
[Ссылки могут видеть только зарегистрированные и активированные пользователи.]
[Only registered and activated users can see links.]

ANALYZER: auCDtect: CD records authenticity detector, version 0.8.2
Copyright © 2004 Oleg Berngardt. All rights reserved.
Copyright © 2004 Alexander Djourik. All rights reserved.


FILE: Metal De Facto - Imperium Romanum.flac
Size: 394797444 Hash: 3968DC05FB23CB093CFDF44760A5CF8E Accuracy: -m0
Conclusion: CDDA 100%
Signature: 1CF3E4945F66628DF094EE4883DF33CD9D707371
[свернуть]

Скачать Metal De Facto - Imperium Romanum

[Ссылки могут видеть только зарегистрированные и активированные пользователи.]
[Only registered and activated users can see links.]
[свернуть]

Вверх
2 пользователя(ей) сказали cпасибо:
sergych (24.04.2022), TAIFUN (18.04.2022)
 
Похожие темы
Тема Автор Раздел Ответов Последнее сообщение
Релиз Imperium Infernalis – Imago Dei PUPOKIN Black Metal 0 10.04.2016 14:06
Релиз Octanic - Aeternus Imperium PUPOKIN Death Metal 0 23.04.2012 09:28
Биография DFP (de facto) Aola Разное 0 24.02.2010 00:43
Альбом Anguish Force - Invincibile Imperium Italicum ReAl Heavy Metal 0 28.06.2008 19:01
Eagles of Death Metal - Peace Love Death Metal Alex_vn69 Hard Rock 0 14.05.2008 19:02


Метки
2019 , imperium romanum , metal de facto , power metal

Опции темы

Ваши права в разделе
Вы не можете создавать новые темы
Вы не можете отвечать в темах
Вы не можете прикреплять вложения
Вы не можете редактировать свои сообщения

Быстрый переход


Текущее время: 05:00. Часовой пояс GMT +3.

© 2008 - 2022 Taifun With Song
Powered by vBulletin® Version 3.8.10
Copyright ©2000 - 2022, vBulletin Solutions, Inc. Перевод: zCarot
При поддержке NIC.UA
Яндекс.Метрика
1.44967 сек. | MySQL: 17