TAIFUN With Song - качественная и редкая музыка
Навигация
Heavy Metal Выражение "Heavy Metall" впервые появилось в романе известного американского писателя Уильяма Берроуза "Naked Lunch" (1959), где он использует этот термин для описания резкой, непривычной музыки. Элемент импровизации в истинном "металле" практически сведен к нулю, точнее - он отсутствует в традиционном смысле этого слова, однако опытные "металлические" группы (Metallica, Slayer, Megadeth) часто вводят в свои композиции очень сложные изменения ритма, и у неподготовленного слушателя может возникнуть ощущение какофонии, хотя речь идет о ритмической импровизации, по духу очень близкой той, которую исследуют серьезные современные композиторы.

А знаете ли Вы, что...
Какой император наказывал офицеров прослушиванием оперы?
«Император Николай I не любил музыку и в качестве наказания для офицеров предоставлял им выбор между гауптвахтой и прослушиванием опер Глинки.»
 
Опции темы

  #1
Старый 12.02.2022, 17:40
swint68
Релизёр
Досье
 
Аватар для swint68
FLAC Kissin' Dynamite - Not The End Of The Road


2022 - Kissin' Dynamite - Not The End Of The Road [Japanese Edition]




Исполнитель/Artist: Kissin' Dynamite
Альбом/Album: Not The End Of The Road [Japanese Edition]
Год/Year: 2022
Жанр/Genre: Melodic Heavy Metal, Glam Metal
Страна/Country: Япония
Рекорд-лейбл/Record label: Avalon; Marquee Inc.
Номер в каталоге/Catalogue #: MICP-11671
Формат/Format: Free Lossless Audio Codec (*.flac)
Качество/Quality: Lossless
Тип рипа/RIP Type: image+.cue
Продолжительность/Length: 00:49:34
Источник/Source: anvador
Размер/Size: 383 MB

Сканы в комплекте

Треклист

01. Not The End Of The Road
02. What Goes Up
03. Only The Dead
04. Good Life
05. Yoko Ono
06. Coming Home
07. All For A Halleluja
08. No One Dies A Virgin
09. Gone For Good
10. Defeat It
11. Voodoo Spell
12. Scars
[свернуть]

Превью на YouTube

[свернуть]

X Lossless Decoder лог

X Lossless Decoder version 20211018 (154.0)

XLD extraction logfile from 2022-02-12 13:17:42 +1000

Various Artists / Not The End Of The Road

Used drive : HL-DT-ST DVDRW GX50N (revision RR06)
Media type : Pressed CD

Ripper mode : XLD Secure Ripper
Disable audio cache : OK for the drive with a cache less than 1375KiB
Make use of C2 pointers : NO
Read offset correction : 6
Max retry count : 20
Gap status : Analyzed, Appended

TOC of the extracted CD
Track | Start | Length | Start sector | End sector
---------------------------------------------------------
1 | 00:00:00 | 04:01:26 | 0 | 18100
2 | 04:01:26 | 03:45:39 | 18101 | 35014
3 | 07:46:65 | 04:03:46 | 35015 | 53285
4 | 11:50:36 | 03:57:35 | 53286 | 71095
5 | 15:47:71 | 03:31:68 | 71096 | 86988
6 | 19:19:64 | 04:41:03 | 86989 | 108066
7 | 24:00:67 | 04:36:22 | 108067 | 128788
8 | 28:37:14 | 04:23:20 | 128789 | 148533
9 | 33:00:34 | 04:21:17 | 148534 | 168125
10 | 37:21:51 | 04:17:62 | 168126 | 187462
11 | 41:39:38 | 03:40:00 | 187463 | 203962
12 | 45:19:38 | 04:14:71 | 203963 | 223083

AccurateRip Summary
Disc not found in AccurateRip DB.

All Tracks
Filename : /Volumes/Seagate Backup Plus Drive/Music/1 My COLLECTION/Kissin' Dynamite/2022 - Not The End Of The Road/Not The End Of The Road.flac
CRC32 hash (test run) : 70AC6A2F
CRC32 hash : 70AC6A2F
CRC32 hash (skip zero) : 29E2CF34
Statistics
Read error : 0
Jitter error (maybe fixed) : 0
Retry sector count : 0
Damaged sector count : 0

Track 01
Pre-gap length : 00:02:00

CRC32 hash (test run) : 3E52A37A
CRC32 hash : 3E52A37A
CRC32 hash (skip zero) : 586A408F
AccurateRip v1 signature : D4B536DD
AccurateRip v2 signature : 02101231
->Track not present in AccurateRip database.
Statistics
Read error : 0
Jitter error (maybe fixed) : 0
Retry sector count : 0
Damaged sector count : 0

Track 02
Pre-gap length : 00:00:69

CRC32 hash (test run) : 4D918707
CRC32 hash : 4D918707
CRC32 hash (skip zero) : 2E5E5D68
AccurateRip v1 signature : 657451FC
AccurateRip v2 signature : 52042559
->Track not present in AccurateRip database.
Statistics
Read error : 0
Jitter error (maybe fixed) : 0
Retry sector count : 0
Damaged sector count : 0

Track 03

CRC32 hash (test run) : 4DFAEE62
CRC32 hash : 4DFAEE62
CRC32 hash (skip zero) : 3761BBA3
AccurateRip v1 signature : AED3F78C
AccurateRip v2 signature : 05CB2BE5
->Track not present in AccurateRip database.
Statistics
Read error : 0
Jitter error (maybe fixed) : 0
Retry sector count : 0
Damaged sector count : 0

Track 04
Pre-gap length : 00:01:35

CRC32 hash (test run) : 87DB8CE0
CRC32 hash : 87DB8CE0
CRC32 hash (skip zero) : 233727FE
AccurateRip v1 signature : C387946B
AccurateRip v2 signature : AD972B5F
->Track not present in AccurateRip database.
Statistics
Read error : 0
Jitter error (maybe fixed) : 0
Retry sector count : 0
Damaged sector count : 0

Track 05

CRC32 hash (test run) : 79E6E641
CRC32 hash : 79E6E641
CRC32 hash (skip zero) : 2D04CD76
AccurateRip v1 signature : 9D5342D4
AccurateRip v2 signature : 5AD6E69E
->Track not present in AccurateRip database.
Statistics
Read error : 0
Jitter error (maybe fixed) : 0
Retry sector count : 0
Damaged sector count : 0

Track 06
Pre-gap length : 00:01:33

CRC32 hash (test run) : 023F8960
CRC32 hash : 023F8960
CRC32 hash (skip zero) : 6FB61718
AccurateRip v1 signature : EB3D8989
AccurateRip v2 signature : E6BDC324
->Track not present in AccurateRip database.
Statistics
Read error : 0
Jitter error (maybe fixed) : 0
Retry sector count : 0
Damaged sector count : 0

Track 07
Pre-gap length : 00:01:60

CRC32 hash (test run) : 0BF9B609
CRC32 hash : 0BF9B609
CRC32 hash (skip zero) : 72FC1F89
AccurateRip v1 signature : DBBE4DD8
AccurateRip v2 signature : FA8284A1
->Track not present in AccurateRip database.
Statistics
Read error : 0
Jitter error (maybe fixed) : 0
Retry sector count : 0
Damaged sector count : 0

Track 08

CRC32 hash (test run) : B5E71927
CRC32 hash : B5E71927
CRC32 hash (skip zero) : 1E9AA6FD
AccurateRip v1 signature : 44EDD3A9
AccurateRip v2 signature : D0455A5D
->Track not present in AccurateRip database.
Statistics
Read error : 0
Jitter error (maybe fixed) : 0
Retry sector count : 0
Damaged sector count : 0

Track 09

CRC32 hash (test run) : 1708D704
CRC32 hash : 1708D704
CRC32 hash (skip zero) : 6546A7E7
AccurateRip v1 signature : 86C0DDEA
AccurateRip v2 signature : 5C6D8B94
->Track not present in AccurateRip database.
Statistics
Read error : 0
Jitter error (maybe fixed) : 0
Retry sector count : 0
Damaged sector count : 0

Track 10

CRC32 hash (test run) : 2B7DFD9F
CRC32 hash : 2B7DFD9F
CRC32 hash (skip zero) : B68B68D0
AccurateRip v1 signature : 5C23321E
AccurateRip v2 signature : 6C03AB21
->Track not present in AccurateRip database.
Statistics
Read error : 0
Jitter error (maybe fixed) : 0
Retry sector count : 0
Damaged sector count : 0

Track 11

CRC32 hash (test run) : 86BC8A60
CRC32 hash : 86BC8A60
CRC32 hash (skip zero) : 3D5D07CE
AccurateRip v1 signature : 7AE90745
AccurateRip v2 signature : 94B62074
->Track not present in AccurateRip database.
Statistics
Read error : 0
Jitter error (maybe fixed) : 0
Retry sector count : 0
Damaged sector count : 0

Track 12
Pre-gap length : 00:02:05

CRC32 hash (test run) : BD825DAA
CRC32 hash : BD825DAA
CRC32 hash (skip zero) : A3B52C25
AccurateRip v1 signature : E54B2389
AccurateRip v2 signature : 8FE39233
->Track not present in AccurateRip database.
Statistics
Read error : 0
Jitter error (maybe fixed) : 0
Retry sector count : 0
Damaged sector count : 0

No errors occurred

End of status report

-----BEGIN XLD SIGNATURE-----
W2yQqNew_F8uZhxQm4uuW1lhqOBEYzisJm5a8wTyayg5Dr_1DN27xKIX9ZfzgXA53xWlMG8_weSxjMMw6s_dTu2N0NwdVChbCJYcGpS
-----END XLD SIGNATURE-----
[свернуть]

Файл CUE

TITLE "Not The End Of The Road"
REM GENRE "Rock"
REM DATE "2022"
REM DISCNUMBER 1
REM TOTALDISCS 1
REM DISCID 960B9E0C
REM COMPILATION TRUE
FILE "Not The End Of The Road.flac" WAVE
TRACK 01 AUDIO
TITLE "Not The End Of The Road"
PERFORMER "Kissin' Dynamite"
SONGWRITER "Andreas Georg Braun/Jim Mueller/Johannes Braun/Steffen Haile"
ISRC ATN262204901
INDEX 01 00:00:00
TRACK 02 AUDIO
TITLE "What Goes Up"
PERFORMER "Kissin' Dynamite"
SONGWRITER "Andreas Georg Braun/Jim Mueller/Johannes Braun/Steffen Haile"
ISRC ATN262204902
INDEX 00 04:00:32
INDEX 01 04:01:26
TRACK 03 AUDIO
TITLE "Only The Dead"
PERFORMER "Kissin' Dynamite"
SONGWRITER "Andreas Georg Braun/Jim Mueller/Johannes Braun/Steffen Haile"
ISRC ATN262204903
INDEX 01 07:46:65
TRACK 04 AUDIO
TITLE "Good Life"
PERFORMER "Kissin' Dynamite Feat. Saltatio Mortis, Charlotte Wessels & Guernica Mancini"
SONGWRITER "Andreas Georg Braun/Jim Mueller/Johannes Braun/Steffen Haile"
ISRC ATN262204905
INDEX 00 11:49:01
INDEX 01 11:50:36
TRACK 05 AUDIO
TITLE "Yoko Ono"
PERFORMER "Kissin' Dynamite"
SONGWRITER "Andreas Georg Braun/Jim Mueller/Johannes Braun/Steffen Haile"
ISRC ATN262204904
INDEX 01 15:47:71
TRACK 06 AUDIO
TITLE "Coming Home"
PERFORMER "Kissin' Dynamite"
SONGWRITER "Andreas Fahnert"
ISRC ATN262204906
INDEX 00 19:18:31
INDEX 01 19:19:64
TRACK 07 AUDIO
TITLE "All For A Halleluja"
PERFORMER "Kissin' Dynamite"
SONGWRITER "Andreas Georg Braun/Jim Mueller/Johannes Braun/Steffen Haile"
ISRC ATN262204910
INDEX 00 23:59:07
INDEX 01 24:00:67
TRACK 08 AUDIO
TITLE "No One Dies A Virgin"
PERFORMER "Kissin' Dynamite"
SONGWRITER "Andreas Georg Braun/Jim Mueller/Johannes Braun/Steffen Haile"
ISRC ATN262204908
INDEX 01 28:37:14
TRACK 09 AUDIO
TITLE "Gone For Good"
PERFORMER "Kissin' Dynamite"
SONGWRITER "Andreas Georg Braun/Jim Mueller/Johannes Braun/Steffen Haile"
ISRC ATN262204909
INDEX 01 33:00:34
TRACK 10 AUDIO
TITLE "Defeat It"
PERFORMER "Kissin' Dynamite"
SONGWRITER "Andreas Georg Braun/Jim Mueller/Johannes Braun/Steffen Haile"
ISRC ATN262204907
INDEX 01 37:21:51
TRACK 11 AUDIO
TITLE "Voodoo Spell"
PERFORMER "Kissin' Dynamite"
SONGWRITER "Andreas Georg Braun/Jim Mueller/Johannes Braun/Steffen Haile"
ISRC ATN262204911
INDEX 01 41:39:38
TRACK 12 AUDIO
TITLE "Scars"
PERFORMER "Kissin' Dynamite"
SONGWRITER "Andreas Georg Braun/Jim Mueller/Johannes Braun/Steffen Haile"
ISRC ATN262204912
INDEX 00 45:17:33
INDEX 01 45:19:38
[свернуть]

Лог проверки качества

-----------------------

DON'T MODIFY THIS FILE

-----------------------

PERFORMER: auCDtect Task Manager, ver. 1.6.0 RC1 build 1.6.0.1
Copyright © 2008-2010 y-soft. All rights reserved
[Ссылки могут видеть только зарегистрированные и активированные пользователи.]
[Only registered and activated users can see links.]

ANALYZER: auCDtect: CD records authenticity detector, version 0.8.2
Copyright © 2004 Oleg Berngardt. All rights reserved.
Copyright © 2004 Alexander Djourik. All rights reserved.


FILE: Not The End Of The Road.flac
Size: 377761485 Hash: 6F6FE7D5759D90D529756104FAFCAA33 Accuracy: -m0
Conclusion: CDDA 100%
Signature: 6DA4C4B602D1A346C548838D873895733F038192
[свернуть]

Скачать Kissin' Dynamite - Not The End Of The Road [Japanese Edition]

[Ссылки могут видеть только зарегистрированные и активированные пользователи.]
[Only registered and activated users can see links.]
[свернуть]

Вверх
2 пользователя(ей) сказали cпасибо:
sergych (13.02.2022), TAIFUN (13.02.2022)
 
Похожие темы
Тема Автор Раздел Ответов Последнее сообщение
Релиз Kissin’ Dynamite – Generation Goodbye PUPOKIN Hard Rock 0 08.07.2016 13:13
Релиз Kissin’ Dynamite - Money, Sex & Power PUPOKIN Heavy Metal 0 25.03.2012 09:32
Jackyl — When Moonshine And Dynamite Collide PUPOKIN Hard Rock 0 11.05.2010 09:40
Релиз Kissin' Dynamite — Addicted To Metal PUPOKIN Heavy Metal 0 27.04.2010 09:49
Сборник 100% Dynamite NYC! PUPOKIN Dance 0 12.03.2009 10:04


Метки
2022 , glam metal , heavy metal , japanese edition , kissin' dynamite , melodic metal

Опции темы

Ваши права в разделе
Вы не можете создавать новые темы
Вы не можете отвечать в темах
Вы не можете прикреплять вложения
Вы не можете редактировать свои сообщения

Быстрый переход


Текущее время: 03:38. Часовой пояс GMT +3.

© 2008 - 2022 Taifun With Song
Powered by vBulletin® Version 3.8.10
Copyright ©2000 - 2022, vBulletin Solutions, Inc. Перевод: zCarot
При поддержке NIC.UA
Яндекс.Метрика
0.31541 сек. | MySQL: 17