TAIFUN With Song - качественная и редкая музыка
Навигация
А знаете ли Вы, что...
Каким образом в Древнем Китае для определения эталона длины применяли колокол?
«В Древнем Китае эталоном меры длины служил специальный колокол, настроенный на заданную высоту звучания. В другом приспособлении натягивалась струна, чтобы её звук соответствовал данной высоте, и получившаяся длина струны принималась за эталон.»
 
Опции темы

  #1
Старый 15.11.2013, 23:29
sergych
Координатор
Досье
 
Аватар для sergych
FLAC Wham! - Make It Big


1984 - Wham! - Make It Big




Исполнитель/Artist: Wham!
Альбом/Album: Make It Big
Год/Year: 1984
Жанр/Genre: New Wave, synthpop, post-disco, blue-eyed soul
Рекорд-лейбл/Record label: EPIC / SONY
Номер в каталоге/Catalogue #: 465576 2 / 5099746557621
Формат/Format: Free Lossless Audio Codec (*.flac)
Качество/Quality: Lossless
Тип рипа/RIP Type: tracks+.cue



Продолжительность/Length: 00:38:10
Источник/Source: Собственный рип
Размер/Size: 289.2 MB

Сканы в комплекте

Треклист

01 - Wake Me Up Before You Go-Go
02 - Everything She Wants
03 - Heartbeat
04 - Like a Baby
05 - Freedom
06 - If You Were There
07 - Credit Card Baby
08 - Careless Whisper
[свернуть]

youtube.com

[свернуть]

EAC лог

Exact Audio Copy V1.0 beta 3 from 29. August 2011

EAC extraction logfile from 16. November 2013, 0:41

Wham! / Make It Big

Used drive : ATAPI iHAS124 D Adapter: 0 ID: 2

Read mode : Secure
Utilize accurate stream : Yes
Defeat audio cache : Yes
Make use of C2 pointers : No

Read offset correction : 6
Overread into Lead-In and Lead-Out : No
Fill up missing offset samples with silence : Yes
Delete leading and trailing silent blocks : No
Null samples used in CRC calculations : Yes
Used interface : Installed external ASPI interface
Gap handling : Appended to previous track

Used output format : User Defined Encoder
Selected bitrate : 1024 kBit/s
Quality : High
Add ID3 tag : No
Command line compressor : C:\Program Files (x86)\Exact Audio Copy\Flac\flac.exe
Additional command line options : -6 -V -T "ARTIST=%artist%" -T "TITLE=%title%" -T "ALBUM=%albumtitle%" -T "DATE=%year%" -T "TRACKNUMBER=%tracknr%" -T "GENRE=%genre%" -T "COMMENT=%comment%" -T "BAND=%albuminterpret%" -T "COMPOSER=%composer%" %haslyrics%--tag-from-file=LYRICS="%lyricsfile%"%haslyrics% -T "DISCNUMBER=%cdnumber%" -T "TOTALDISCS=%totalcds%" -T "TOTALTRACKS=%numtracks%" %hascover%--picture="%coverfile%"%hascover% %source% -o %dest%


TOC of the extracted CD

Track | Start | Length | Start sector | End sector
---------------------------------------------------------
1 | 0:00.00 | 3:50.52 | 0 | 17301
2 | 3:50.52 | 5:02.28 | 17302 | 39979
3 | 8:53.05 | 4:44.15 | 39980 | 61294
4 | 13:37.20 | 4:13.42 | 61295 | 80311
5 | 17:50.62 | 5:00.53 | 80312 | 102864
6 | 22:51.40 | 3:37.32 | 102865 | 119171
7 | 26:28.72 | 5:08.05 | 119172 | 142276
8 | 31:37.02 | 6:33.73 | 142277 | 171824


Track 1

Filename C:\mm\Wham!\1984 - Make It Big [465576 2]\01 - Wake Me Up Before You Go-Go.wav

Pre-gap length 0:00:02.00

Peak level 94.4 %
Extraction speed 5.2 X
Track quality 100.0 %
Test CRC 709433C4
Copy CRC 709433C4
Accurately ripped (confidence 16) [9DA586A1] (AR v2)
Copy OK

Track 2

Filename C:\mm\Wham!\1984 - Make It Big [465576 2]\02 - Everything She Wants.wav

Peak level 94.4 %
Extraction speed 6.0 X
Track quality 100.0 %
Test CRC A83D4213
Copy CRC A83D4213
Accurately ripped (confidence 16) [F14C02B1] (AR v2)
Copy OK

Track 3

Filename C:\mm\Wham!\1984 - Make It Big [465576 2]\03 - Heartbeat.wav

Peak level 94.4 %
Extraction speed 5.8 X
Track quality 99.9 %
Test CRC 925CF166
Copy CRC 925CF166
Accurately ripped (confidence 17) [B39C67B0] (AR v2)
Copy OK

Track 4

Filename C:\mm\Wham!\1984 - Make It Big [465576 2]\04 - Like a Baby.wav

Peak level 100.0 %
Extraction speed 7.1 X
Track quality 100.0 %
Test CRC 8C307839
Copy CRC 8C307839
Accurately ripped (confidence 16) [849EE489] (AR v2)
Copy OK

Track 5

Filename C:\mm\Wham!\1984 - Make It Big [465576 2]\05 - Freedom.wav

Peak level 94.4 %
Extraction speed 7.7 X
Track quality 100.0 %
Test CRC 37FF674B
Copy CRC 37FF674B
Accurately ripped (confidence 16) [F0BE482F] (AR v2)
Copy OK

Track 6

Filename C:\mm\Wham!\1984 - Make It Big [465576 2]\06 - If You Were There.wav

Peak level 94.4 %
Extraction speed 6.5 X
Track quality 99.9 %
Test CRC 1096C68C
Copy CRC 1096C68C
Accurately ripped (confidence 16) [B2E4DFB7] (AR v2)
Copy OK

Track 7

Filename C:\mm\Wham!\1984 - Make It Big [465576 2]\07 - Credit Card Baby.wav

Peak level 94.4 %
Extraction speed 7.5 X
Track quality 99.9 %
Test CRC 06DBD371
Copy CRC 06DBD371
Accurately ripped (confidence 16) [50D33A7E] (AR v2)
Copy OK

Track 8

Filename C:\mm\Wham!\1984 - Make It Big [465576 2]\08 - Careless Whisper.wav

Peak level 94.4 %
Extraction speed 9.3 X
Track quality 100.0 %
Test CRC A2BC14D8
Copy CRC A2BC14D8
Accurately ripped (confidence 17) [19F06E2D] (AR v2)
Copy OK


All tracks accurately ripped

No errors occurred

End of status report

---- CUETools DB Plugin V2.1.3

[CTDB TOCID: F0m4iOC3RWmCWtpBjgU9hXJfWoc-] found, Submit result: F0m4iOC3RWmCWtpBjgU9hXJfWoc- has been confirmed
[b7c0f716] (26/26) Accurately ripped
[свернуть]

Файл CUE

REM DATE 1984
REM DISCID 6A08F308
REM COMMENT "ExactAudioCopy v1.0b3"
PERFORMER "Wham!"
TITLE "Make It Big"
FILE "01 - Wake Me Up Before You Go-Go.wav" WAVE
TRACK 01 AUDIO
TITLE "Wake Me Up Before You Go-Go"
PERFORMER "Wham!"
INDEX 01 00:00:00
FILE "02 - Everything She Wants.wav" WAVE
TRACK 02 AUDIO
TITLE "Everything She Wants"
PERFORMER "Wham!"
INDEX 01 00:00:00
FILE "03 - Heartbeat.wav" WAVE
TRACK 03 AUDIO
TITLE "Heartbeat"
PERFORMER "Wham!"
INDEX 01 00:00:00
FILE "04 - Like a Baby.wav" WAVE
TRACK 04 AUDIO
TITLE "Like a Baby"
PERFORMER "Wham!"
INDEX 01 00:00:00
FILE "05 - Freedom.wav" WAVE
TRACK 05 AUDIO
TITLE "Freedom"
PERFORMER "Wham!"
INDEX 01 00:00:00
FILE "06 - If You Were There.wav" WAVE
TRACK 06 AUDIO
TITLE "If You Were There"
PERFORMER "Wham!"
INDEX 01 00:00:00
FILE "07 - Credit Card Baby.wav" WAVE
TRACK 07 AUDIO
TITLE "Credit Card Baby"
PERFORMER "Wham!"
INDEX 01 00:00:00
FILE "08 - Careless Whisper.wav" WAVE
TRACK 08 AUDIO
TITLE "Careless Whisper"
PERFORMER "Wham!"
INDEX 01 00:00:00
[свернуть]

Лог проверки качества

AUDIOCHECKER v2.0 beta (build 457) - by Dester - [Ссылки могут видеть только зарегистрированные и активированные пользователи.]
[Only registered and activated users can see links.]
~~~~~~~~~~~~~~~~~~~~~~~~~~~~~~~~~~
-=== НЕ РЕДАКТИРУЙТЕ ЭТОТ ФАЙЛ! ===-

Путь: ...\1984 - Make It Big [465576 2]

1 -=- 01 - Wake Me Up Before You Go-Go.flac -=- CDDA (100%)
2 -=- 02 - Everything She Wants.flac -=- CDDA (100%)
3 -=- 03 - Heartbeat.flac -=- CDDA (99%)
4 -=- 04 - Like a Baby.flac -=- CDDA (100%)
5 -=- 05 - Freedom.flac -=- CDDA (100%)
6 -=- 06 - If You Were There.flac -=- CDDA (100%)
7 -=- 07 - Credit Card Baby.flac -=- CDDA (100%)
8 -=- 08 - Careless Whisper.flac -=- CDDA (100%)

Сводка 99,88% CDDA

39692740
[свернуть]

Скачать Wham! - Make It Big

[Ссылки могут видеть только зарегистрированные и активированные пользователи.]
[Only registered and activated users can see links.]

password: sergych
[свернуть]
My opinion of release: 9/10
__________________
TAIFUN.Wings of Soul

sergych вне форума  
Вверх
 
Похожие темы
Тема Автор Раздел Ответов Последнее сообщение
Релиз Mrs. Colombo - [re]make up PUPOKIN Jazz и Blues 0 25.04.2012 10:01
Релиз OSI - Fire Make Thunder PUPOKIN Progressive Metal 0 28.03.2012 10:10
VA Make Way For The New Generation PUPOKIN Drum & Bass 0 03.11.2011 11:17
On The Last Day - Make It Mean Something ReAl Hardcore Rock 0 05.10.2008 19:35


Метки
1984 , blue-eyed soul , george michael , make it big , new wave , post-disco , synthpop , wham!

Опции темы

Ваши права в разделе
Вы не можете создавать новые темы
Вы не можете отвечать в темах
Вы не можете прикреплять вложения
Вы не можете редактировать свои сообщения

Быстрый переход


Текущее время: 03:35. Часовой пояс GMT +3.

© 2008 - 2022 Taifun With Song
Powered by vBulletin® Version 3.8.10
Copyright ©2000 - 2022, vBulletin Solutions, Inc. Перевод: zCarot
При поддержке NIC.UA
0.19774 сек. | MySQL: 17