TAIFUN With Song - качественная и редкая музыка
Навигация
Thrash Metal Быстрый стремительный темп исполнения метала, скоростные низкочастотные гитарные риффы и высокочастотные соло. Гитарные ритм-партии при исполнении трэш-метала характеризуются приглушением вибрации струн ладонью (англ. palm muting) и стаккато при сильно искажённом звуке, вследствие чего приобретается некое «пыхтящее» звучание.

А знаете ли Вы, что...
Сколько музыкантов и композиторов произошло из семьи Бахов?
«Иоганн Себастьян Бах был не единственным талантом в своей семье. Бахи дали миру более 50 известных музыкантов и несколько замечательных композиторов. Сам Иоганн Себастьян был признан наиболее выдающимся из них намного позже своей смерти. В последние же годы жизни Иоганна Себастьяна его больше почитали за воспитание Бахов-младших, в первую очередь Карла Филиппа Эммануила, музыка которого была известнее.»
 
Опции темы

  #1
Старый 10.07.2021, 09:24
swint68
Релизёр
Досье
 
Аватар для swint68
FLAC Flotsam and Jetsam - Blood In The Water


2021 - Flotsam and Jetsam - Blood In The Water




Исполнитель/Artist: Flotsam and Jetsam
Альбом/Album: Blood In The Water
Год/Year: 2021
Жанр/Genre: Thrash Metal, Power Metal
Страна/Country: Германия
Рекорд-лейбл/Record label: AFM Records
Номер в каталоге/Catalogue #: AFM 772-9
Формат/Format: Free Lossless Audio Codec (*.flac)
Качество/Quality: Lossless
Тип рипа/RIP Type: image+.cue
Продолжительность/Length: 00:53:56
Источник/Source: Ilijan
Размер/Size: 476 MB

Сканы в комплекте

Треклист

01. Blood In The Water
02. Burn The Sky
03. Brace For Impact
04. A Place To Die
05. The Walls
06. Cry For The Dead
07. The Wicked Hour
08. Too Many Lives
09. Grey Dragon
10. Reaggression
11. Undone
12. Seven Seconds 'Til The End Of The World
[свернуть]

Превью на YouTube

[свернуть]

EAC лог

Exact Audio Copy V1.5 from 20. February 2020

EAC extraction logfile from 9. June 2021, 19:57

Flotsam And Jetsam / Blood In The Water

Used drive : ATAPI iHAS124 F Adapter: 1 ID: 1

Read mode : Secure
Utilize accurate stream : Yes
Defeat audio cache : Yes
Make use of C2 pointers : No

Read offset correction : 6
Overread into Lead-In and Lead-Out : No
Fill up missing offset samples with silence : Yes
Delete leading and trailing silent blocks : No
Null samples used in CRC calculations : Yes
Used interface : Native Win32 interface for Win NT & 2000

Used output format : User Defined Encoder
Selected bitrate : 1024 kBit/s
Quality : High
Add ID3 tag : No
Command line compressor : C:\Program Files (x86)\FLAC Frontend\tools\flac.exe
Additional command line options : -V -8 -T "Date=%year%" -T "Genre=%genre%" -T"COMMENT=Ripped by Ilijan [MeTaLMaDNeSS.TeaM]" -8 -V %source%


TOC of the extracted CD

Track | Start | Length | Start sector | End sector
---------------------------------------------------------
1 | 0:00.00 | 4:17.31 | 0 | 19305
2 | 4:17.31 | 4:26.69 | 19306 | 39324
3 | 8:44.25 | 4:33.56 | 39325 | 59855
4 | 13:18.06 | 4:22.12 | 59856 | 79517
5 | 17:40.18 | 4:41.28 | 79518 | 100620
6 | 22:21.46 | 4:36.41 | 100621 | 121361
7 | 26:58.12 | 4:56.46 | 121362 | 143607
8 | 31:54.58 | 4:49.69 | 143608 | 165351
9 | 36:44.52 | 4:27.30 | 165352 | 185406
10 | 41:12.07 | 4:10.74 | 185407 | 204230
11 | 45:23.06 | 3:19.43 | 204231 | 219198
12 | 48:42.49 | 4:53.28 | 219199 | 241201


Range status and errors

Selected range

Filename E:\Vknish+g.y.m.+angelito (a.k.a. deminbek)=3.14дарасы (Upload On Rutracker, DIE!!!)\Flotsam And Jetsam - Blood In The Water.wav

Peak level 97.0 %
Extraction speed 6.0 X
Range quality 100.0 %
Test CRC 0EAD56AE
Copy CRC 0EAD56AE
Copy OK

No errors occurred


AccurateRip summary

Track 1 not present in database
Track 2 not present in database
Track 3 not present in database
Track 4 not present in database
Track 5 not present in database
Track 6 not present in database
Track 7 not present in database
Track 8 not present in database
Track 9 not present in database
Track 10 not present in database
Track 11 not present in database
Track 12 not present in database

None of the tracks are present in the AccurateRip database

End of status report

---- CUETools DB Plugin V2.1.6

[CTDB TOCID: O2osJ_UTeO.w_0v2arwlgz1lnxo-] found
Submit result: O2osJ_UTeO.w_0v2arwlgz1lnxo- has been confirmed
Track | CTDB Status
1 | (17/17) Accurately ripped
2 | (17/17) Accurately ripped
3 | (17/17) Accurately ripped
4 | (17/17) Accurately ripped
5 | (17/17) Accurately ripped
6 | (17/17) Accurately ripped
7 | (17/17) Accurately ripped
8 | (17/17) Accurately ripped
9 | (17/17) Accurately ripped
10 | (17/17) Accurately ripped
11 | (17/17) Accurately ripped
12 | (17/17) Accurately ripped


==== Log checksum 78BFCD37CAA635A828920F56C5CD11C0AEFEC9484C6EC0E30C7C1ABDFF7A7283 ====
[свернуть]

Файл CUE

REM GENRE "Thrash Metal"
REM DATE 2021
REM DISCID 910C900C
REM COMMENT "ExactAudioCopy v1.5"
PERFORMER "Flotsam And Jetsam"
TITLE "Blood In The Water"
FILE "Flotsam And Jetsam - Blood In The Water.flac" WAVE
TRACK 01 AUDIO
TITLE "Blood In The Water"
PERFORMER "Flotsam And Jetsam"
INDEX 01 00:00:00
TRACK 02 AUDIO
TITLE "Burn The Sky"
PERFORMER "Flotsam And Jetsam"
INDEX 01 04:17:31
TRACK 03 AUDIO
TITLE "Brace For Impact"
PERFORMER "Flotsam And Jetsam"
INDEX 01 08:44:25
TRACK 04 AUDIO
TITLE "A Place To Die"
PERFORMER "Flotsam And Jetsam"
INDEX 01 13:18:06
TRACK 05 AUDIO
TITLE "The Walls"
PERFORMER "Flotsam And Jetsam"
INDEX 01 17:40:18
TRACK 06 AUDIO
TITLE "Cry For The Dead"
PERFORMER "Flotsam And Jetsam"
INDEX 01 22:21:46
TRACK 07 AUDIO
TITLE "The Wicked Hour"
PERFORMER "Flotsam And Jetsam"
INDEX 01 26:58:12
TRACK 08 AUDIO
TITLE "Too Many Lives"
PERFORMER "Flotsam And Jetsam"
INDEX 01 31:54:58
TRACK 09 AUDIO
TITLE "Grey Dragon"
PERFORMER "Flotsam And Jetsam"
INDEX 01 36:44:52
TRACK 10 AUDIO
TITLE "Reaggression"
PERFORMER "Flotsam And Jetsam"
INDEX 01 41:12:07
TRACK 11 AUDIO
TITLE "Undone"
PERFORMER "Flotsam And Jetsam"
INDEX 01 45:23:06
TRACK 12 AUDIO
TITLE "Seven Seconds 'Til The End Of The World"
PERFORMER "Flotsam And Jetsam"
INDEX 01 48:42:49
[свернуть]

Лог проверки качества

-----------------------

DON'T MODIFY THIS FILE

-----------------------

PERFORMER: auCDtect Task Manager, ver. 1.6.0 RC1 build 1.6.0.1
Copyright © 2008-2010 y-soft. All rights reserved
[Ссылки могут видеть только зарегистрированные и активированные пользователи.]
[Only registered and activated users can see links.]

ANALYZER: auCDtect: CD records authenticity detector, version 0.8.2
Copyright © 2004 Oleg Berngardt. All rights reserved.
Copyright © 2004 Alexander Djourik. All rights reserved.


FILE: Flotsam And Jetsam - Blood In The Water.flac
Size: 415425911 Hash: C1932DD8C2912E06A5135AF32B20D56A Accuracy: -m0
Conclusion: CDDA 100%
Signature: 92BFEF11CAE17A20CB759D78D59A40D40C48C0F5
[свернуть]

Скачать Flotsam and Jetsam - Blood In The Water

[Ссылки могут видеть только зарегистрированные и активированные пользователи.]
[Only registered and activated users can see links.]
[свернуть]

Вверх
2 пользователя(ей) сказали cпасибо:
sergych (13.07.2021), TAIFUN (12.07.2021)
 
Похожие темы
Тема Автор Раздел Ответов Последнее сообщение
Релиз Flotsam and Jetsam – Flotsam and Jetsam PUPOKIN Thrash Metal 0 20.05.2016 16:47
Релиз Blood On The Dance Floor - Bad Blood PUPOKIN Зарубежная Поп-Музыка 0 05.09.2013 10:08
Релиз Flotsam and Jetsam - The Cold PUPOKIN Thrash Metal 0 16.09.2010 11:29
Blood Spilt As Water - Condemned ReAl Death Metal 0 10.09.2008 18:45
Альбом Chris Rea - Water Sign sergych Pop Rock 0 02.05.2008 07:15


Метки
2021 , blood in the water , flotsam and jetsam , power metal , thrash metal

Опции темы

Ваши права в разделе
Вы не можете создавать новые темы
Вы не можете отвечать в темах
Вы не можете прикреплять вложения
Вы не можете редактировать свои сообщения

Быстрый переход


Текущее время: 03:46. Часовой пояс GMT +3.

© 2008 - 2021 Taifun With Song
Powered by vBulletin® Version 3.8.10
Copyright ©2000 - 2021, vBulletin Solutions, Inc. Перевод: zCarot
При поддержке NIC.UA
Яндекс.Метрика
0.18669 сек. | MySQL: 17