TAIFUN With Song - качественная и редкая музыка
Навигация
Folk (народная) Традиционная музыка отдельно взятого народа или культуры. Она несёт в себе частичку самобытности народа, отражает его ментальность.

А знаете ли Вы, что...
Влияние скрипки на пауков!
«Если заиграть перед пауками на скрипке, то они выйдут из своих укрытий!»
 
Опции темы

  #1
Старый 15.06.2021, 10:46
sergych
Координатор
Досье
 
Аватар для sergych
FLAC Bill Frisell - Nashville


1997 - Bill Frisell - Nashville




Исполнитель/Artist: Bill Frisell
Альбом/Album: Nashville
Год/Year: 1997
Жанр/Genre: Folk jazz, New Acoustic, Progressive bluegrass, Americana
Страна/Country: Соединённые Штаты
Рекорд-лейбл/Record label: Nonesuch Records
Номер в каталоге/Catalogue #: 79415-2
Формат/Format: Free Lossless Audio Codec (*.flac)
Качество/Quality: Lossless
Тип рипа/RIP Type: image+.cue


Продолжительность/Length: 01:03:03
Источник/Source: Собственный рип
Размер/Size: 331.3 MB

Сканы в комплекте

Треклист

01. Gimme A Holler [0:05:05.25]
02. Go Jake [0:04:27.13]
03. One Of These Days [0:04:52.15]
04. Mr. Memory [0:03:58.72]
05. Brother [0:06:02.68]
06. Will Jesus Wash The Bloodstains From Your Hand [0:03:08.67]
07. Keep Your Eyes Open [0:03:30.40]
08. Pipe Down [0:06:50.28]
09. Family [0:05:21.55]
10. We´re Not From Around Here [0:04:26.40]
11. Dogwood Acres [0:05:29.10]
12. Shucks [0:04:15.25]
13. The End Of The World [0:03:33.32]
14. Gone [0:02:00.18]
[свернуть]

Превью на YouTube

[свернуть]

Исполнители/Performers

Bill Frisell – guitar
Viktor Krauss – bass
Jerry Douglas (1-6, 9-10 & 12) – dobro
Ron Block (2, 6, 8, 11, 13 & 14) – banjo
Adam Steffey (2, 3, 6–8, 11, 13 & 14) – mandolin
Robin Holcomb (3, 6 & 13) – vocals
Pat Bergeson (2 & 8) – harmonica
[свернуть]

EAC лог

Exact Audio Copy V1.5 from 20. February 2020

EAC extraction logfile from 5. June 2021, 9:06

Bill Frisell / Nashville

Used drive : PIONEER DVD-RW DVR-220L Adapter: 1 ID: 0

Read mode : Secure
Utilize accurate stream : Yes
Defeat audio cache : Yes
Make use of C2 pointers : No

Read offset correction : 6
Overread into Lead-In and Lead-Out : No
Fill up missing offset samples with silence : Yes
Delete leading and trailing silent blocks : No
Null samples used in CRC calculations : Yes
Used interface : Installed external ASPI interface

Used output format : User Defined Encoder
Selected bitrate : 1024 kBit/s
Quality : High
Add ID3 tag : No
Command line compressor : C:\Program Files (x86)\Exact Audio Copy\Flac\flac.exe
Additional command line options : -6 -V -T "ARTIST=%artist%" -T "TITLE=%title%" -T "ALBUM=%albumtitle%" -T "DATE=%year%" -T "TRACKNUMBER=%tracknr%" -T "GENRE=%genre%" -T "COMMENT=%comment%" -T "BAND=%albuminterpret%" -T "ALBUMARTIST=%albuminterpret%" -T "COMPOSER=%composer%" %haslyrics%--tag-from-file=LYRICS="%lyricsfile%"%haslyrics% -T "DISCNUMBER=%cdnumber%" -T "TOTALDISCS=%totalcds%" -T "TOTALTRACKS=%numtracks%" %hascover%--picture="%coverfile%"%hascover% %source% -o %dest%


TOC of the extracted CD

Track | Start | Length | Start sector | End sector
---------------------------------------------------------
1 | 0:00.32 | 5:05.25 | 32 | 22931
2 | 5:05.57 | 4:27.13 | 22932 | 42969
3 | 9:32.70 | 4:52.15 | 42970 | 64884
4 | 14:25.10 | 3:58.72 | 64885 | 82806
5 | 18:24.07 | 6:02.68 | 82807 | 110024
6 | 24:27.00 | 3:08.67 | 110025 | 124191
7 | 27:35.67 | 3:30.40 | 124192 | 139981
8 | 31:06.32 | 6:50.28 | 139982 | 170759
9 | 37:56.60 | 5:21.55 | 170760 | 194889
10 | 43:18.40 | 4:26.40 | 194890 | 214879
11 | 47:45.05 | 5:29.10 | 214880 | 239564
12 | 53:14.15 | 4:15.25 | 239565 | 258714
13 | 57:29.40 | 3:33.32 | 258715 | 274721
14 | 61:02.72 | 2:00.18 | 274722 | 283739


Range status and errors

Selected range

Filename C:\mm\Bill Frisell\1997 - Nashville [Nonesuch 79415-2]\Bill Frisell - Nashville.wav

Peak level 100.0 %
Extraction speed 7.9 X
Range quality 100.0 %
Test CRC A18B502B
Copy CRC A18B502B
Copy OK

No errors occurred


AccurateRip summary

Track 1 accurately ripped (confidence 75) [14FA66DF] (AR v2)
Track 2 accurately ripped (confidence 75) [8AD2E875] (AR v2)
Track 3 accurately ripped (confidence 75) [BCA4C53E] (AR v2)
Track 4 accurately ripped (confidence 75) [967A42C7] (AR v2)
Track 5 accurately ripped (confidence 75) [092DF3D8] (AR v2)
Track 6 accurately ripped (confidence 76) [A140D9E4] (AR v2)
Track 7 accurately ripped (confidence 75) [29E30316] (AR v2)
Track 8 accurately ripped (confidence 75) [EFFD555E] (AR v2)
Track 9 accurately ripped (confidence 73) [F7595D39] (AR v2)
Track 10 accurately ripped (confidence 76) [86A503C8] (AR v2)
Track 11 accurately ripped (confidence 75) [0367A44D] (AR v2)
Track 12 accurately ripped (confidence 74) [E94B3D5D] (AR v2)
Track 13 accurately ripped (confidence 74) [25D36F86] (AR v2)
Track 14 accurately ripped (confidence 76) [8AF1D14A] (AR v2)

All tracks accurately ripped

End of status report

---- CUETools DB Plugin V2.1.6

[CTDB TOCID: R.kgSNyc4KTTByZgilBXqD2iaH4-] found
Submit result: R.kgSNyc4KTTByZgilBXqD2iaH4- has been confirmed
Track | CTDB Status
1 | (100/101) Accurately ripped
2 | ( 99/101) Accurately ripped
3 | (101/101) Accurately ripped
4 | (101/101) Accurately ripped
5 | (101/101) Accurately ripped
6 | (101/101) Accurately ripped
7 | (101/101) Accurately ripped
8 | (101/101) Accurately ripped
9 | (101/101) Accurately ripped
10 | (100/101) Accurately ripped
11 | (100/101) Accurately ripped
12 | (101/101) Accurately ripped
13 | ( 99/101) Accurately ripped
14 | ( 98/101) Accurately ripped
[свернуть]

Файл CUE

REM GENRE "Folk Jazz"
REM DATE 1997
REM DISCID DC0EC70E
REM COMMENT "ExactAudioCopy v1.5"
PERFORMER "Bill Frisell"
TITLE "Nashville"
REM COMPOSER ""
FILE "Bill Frisell - Nashville.flac" WAVE
TRACK 01 AUDIO
TITLE "Gimme A Holler"
PERFORMER "Bill Frisell"
REM COMPOSER ""
INDEX 00 00:00:00
INDEX 01 00:00:32
TRACK 02 AUDIO
TITLE "Go Jake"
PERFORMER "Bill Frisell"
REM COMPOSER ""
INDEX 00 05:05:55
INDEX 01 05:05:57
TRACK 03 AUDIO
TITLE "One Of These Days"
PERFORMER "Bill Frisell"
REM COMPOSER ""
INDEX 00 09:32:67
INDEX 01 09:32:70
TRACK 04 AUDIO
TITLE "Mr. Memory"
PERFORMER "Bill Frisell"
REM COMPOSER ""
INDEX 00 14:24:35
INDEX 01 14:25:10
TRACK 05 AUDIO
TITLE "Brother"
PERFORMER "Bill Frisell"
REM COMPOSER ""
INDEX 00 18:24:05
INDEX 01 18:24:07
TRACK 06 AUDIO
TITLE "Will Jesus Wash The Bloodstains From Your Hand"
PERFORMER "Bill Frisell"
REM COMPOSER ""
INDEX 00 24:26:72
INDEX 01 24:27:00
TRACK 07 AUDIO
TITLE "Keep Your Eyes Open"
PERFORMER "Bill Frisell"
REM COMPOSER ""
INDEX 01 27:35:67
TRACK 08 AUDIO
TITLE "Pipe Down"
PERFORMER "Bill Frisell"
REM COMPOSER ""
INDEX 00 31:06:30
INDEX 01 31:06:32
TRACK 09 AUDIO
TITLE "Family"
PERFORMER "Bill Frisell"
REM COMPOSER ""
INDEX 00 37:56:57
INDEX 01 37:56:60
TRACK 10 AUDIO
TITLE "We're Not From Around Here"
PERFORMER "Bill Frisell"
REM COMPOSER ""
INDEX 00 43:18:37
INDEX 01 43:18:40
TRACK 11 AUDIO
TITLE "Dogwood Acres"
PERFORMER "Bill Frisell"
REM COMPOSER ""
INDEX 00 47:40:35
INDEX 01 47:45:05
TRACK 12 AUDIO
TITLE "Shucks"
PERFORMER "Bill Frisell"
REM COMPOSER ""
INDEX 00 53:13:37
INDEX 01 53:14:15
TRACK 13 AUDIO
TITLE "The End Of The World"
PERFORMER "Bill Frisell"
REM COMPOSER ""
INDEX 00 57:29:37
INDEX 01 57:29:40
TRACK 14 AUDIO
TITLE "Gone"
PERFORMER "Bill Frisell"
REM COMPOSER ""
INDEX 00 61:01:65
INDEX 01 61:02:72
[свернуть]

Лог проверки качества

AUDIOCHECKER v2.0 beta (build 457) - by Dester - [Ссылки могут видеть только зарегистрированные и активированные пользователи.]
[Only registered and activated users can see links.]
~~~~~~~~~~~~~~~~~~~~~~~~~~~~~~~~~~
-=== НЕ РЕДАКТИРУЙТЕ ЭТОТ ФАЙЛ! ===-

Путь: ...\1997 - Nashville [Nonesuch 79415-2]

1 -=- Bill Frisell - Nashville.flac -=- CDDA (100%)

192364244

---------------

PERFORMER: auCDtect Task Manager, ver. 1.6.0 RC1 build 1.6.0.1
Copyright © 2008-2010 y-soft. All rights reserved
[Ссылки могут видеть только зарегистрированные и активированные пользователи.]
[Only registered and activated users can see links.]

ANALYZER: auCDtect: CD records authenticity detector, version 0.8.2
Copyright © 2004 Oleg Berngardt. All rights reserved.
Copyright © 2004 Alexander Djourik. All rights reserved.


FILE: Bill Frisell - Nashville.flac
Size: 315364969 Hash: 1D1EFFE111E06140CD13F49A0E0AE80B Accuracy: -m8
Conclusion: CDDA 100%
Signature: 92CC06B6312879ED740293F53E4D5326F4F43DA6
[свернуть]

Отчёт Dynamic Range Meter

Код:
foobar2000 1.6 / Замер динамического диапазона (DR) 1.1.1
Дата отчёта:		2021-06-05 09:47:09

--------------------------------------------------------------------------------
Анализ:   Bill Frisell / Nashville
--------------------------------------------------------------------------------

DR         Пики         RMS           Продолжительность трека
--------------------------------------------------------------------------------
DR11      -0.42 дБ   -15.76 дБ      5:05 01-Gimme A Holler
DR10      -0.41 дБ   -12.74 дБ      4:27 02-Go Jake
DR11      -0.36 дБ   -13.17 дБ      4:52 03-One Of These Days
DR10      -0.31 дБ   -13.75 дБ      3:59 04-Mr. Memory
DR12      -0.21 дБ   -17.35 дБ      6:03 05-Brother
DR10      -0.32 дБ   -11.64 дБ      3:09 06-Will Jesus Wash The Bloodstains From Your Hand
DR13       0.00 дБ   -15.15 дБ      3:31 07-Keep Your Eyes Open
DR10      -1.18 дБ   -14.93 дБ      6:50 08-Pipe Down
DR11      -0.43 дБ   -14.91 дБ      5:22 09-Family
DR12      -0.11 дБ   -15.58 дБ      4:27 10-We.re Not From Around Here
DR14      -0.30 дБ   -17.61 дБ      5:29 11-Dogwood Acres
DR11      -0.89 дБ   -15.86 дБ      4:15 12-Shucks
DR11      -0.32 дБ   -13.31 дБ      3:33 13-The End Of The World
DR13      -1.03 дБ   -15.54 дБ      2:00 14-Gone
--------------------------------------------------------------------------------

Количество треков:	14
Реальные значения DR:	DR11

Частота:			44100 Гц
Каналов:			2
Разрядность: 		16
Битрейт:			667 кбит/с
Кодек:			FLAC
================================================================================
[свернуть]

Спектр частот

[свернуть]

Скачать Bill Frisell - Nashville

[Ссылки могут видеть только зарегистрированные и активированные пользователи.]
[Only registered and activated users can see links.]

password: sergych
[свернуть]

Контрольная сумма (хеш-сумма) архива

MD5: a5438b6846e08bf36ef5c29469e457b6
[свернуть]
My opinion of release: 9/10
__________________
TAIFUN.Wings of Soul

Вверх
Пользователь сказал cпасибо:
TAIFUN (15.06.2021)
 
Похожие темы
Тема Автор Раздел Ответов Последнее сообщение
Ill Bill - Howie Made Me Do It 3 PUPOKIN Зарубежный 0 14.12.2013 10:50
Сборник Bill Evans - The Complete Bill Evans on VERVE sergych Jazz и Blues 0 28.09.2013 19:04
Релиз Bill Callahan - Sometimes I Wish We Were an Eagle PUPOKIN Country 0 14.05.2009 12:33
Релиз Nashville Pussy - From Hell To Texas PUPOKIN Rock`n`Roll 0 11.05.2009 10:44
Альбом Bob Dylan - Nashville Skyline PUPOKIN Folk (народная) 0 13.03.2009 15:15


Метки
1997 , americana , bill frisell , folk jazz , nashville , new acoustic , progressive bluegrass

Опции темы

Ваши права в разделе
Вы не можете создавать новые темы
Вы не можете отвечать в темах
Вы не можете прикреплять вложения
Вы не можете редактировать свои сообщения

Быстрый переход


Текущее время: 02:13. Часовой пояс GMT +3.

© 2008 - 2021 Taifun With Song
Powered by vBulletin® Version 3.8.10
Copyright ©2000 - 2021, vBulletin Solutions, Inc. Перевод: zCarot
При поддержке NIC.UA
Яндекс.Метрика
0.23726 сек. | MySQL: 17