TAIFUN With Song - качественная и редкая музыка
Навигация
Jazz и Blues Гибкая ритмика, импровизационное начало, гармонии и мелодии - все это Jazz. Blues - жизнеутверждающая музыка, рожденная из душевной боли

А знаете ли Вы, что...
Где собачий вальс зовут ослиным маршем, а где — кошачьей полькой?
«Собачий вальс в разных странах называется по-разному. В Германии, Бельгии, Нидерландах — блошиный вальс. В Болгарии — кошачий марш, а в Финляндии — кошачья полька. В Венгрии — ослиный марш, а во Франции его почему-то называют отбивной котлетой.»
 
Опции темы

  #1
Старый 13.06.2021, 08:02
sergych
Координатор
Досье
 
Аватар для sergych
FLAC Анна Бутурлина - Black Coffee


2002 - Анна Бутурлина - Black Coffee




Исполнитель/Artist: Анна Бутурлина
Альбом/Album: Black Coffee
Год/Year: 2002
Жанр/Genre: Jazz
Страна/Country: Россия
Рекорд-лейбл/Record label: Evergreen Records
Номер в каталоге/Catalogue #: EGJAZZ-011
Формат/Format: Free Lossless Audio Codec (*.flac)
Качество/Quality: Lossless
Тип рипа/RIP Type: image+.cue


Продолжительность/Length: 00:50:58
Источник/Source: Собственный рип
Размер/Size: 323.4 MB

Сканы в комплекте

Треклист

01. You Brought a New Kind of Love to Me [0:03:49.51]
02. Mas Que Nada [0:06:25.60]
03. Everything I Love [0:04:24.13]
04. Embraceable You [0:04:37.64]
05. Sister Sadie [0:10:36.32]
06. Зеркало [0:05:13.63]
07. Nobody Else But Me [0:04:55.34]
08. Black Coffee [0:05:07.23]
09. Boogie Blues [0:05:46.40]
[свернуть]

Превью на YouTube

[свернуть]

Исполнители/Performers

Анна Бутурлина - вокал
Виталий Головнев - труба
Алексей Беккер - фортепиано
Сергей Хутас - контрабас
Евгений Рябой - ударные
[свернуть]

EAC лог

Exact Audio Copy V1.5 from 20. February 2020

EAC extraction logfile from 5. June 2021, 0:43

Анна Бутурлина / Black Coffee

Used drive : PIONEER DVD-RW DVR-220L Adapter: 1 ID: 0

Read mode : Secure
Utilize accurate stream : Yes
Defeat audio cache : Yes
Make use of C2 pointers : No

Read offset correction : 6
Overread into Lead-In and Lead-Out : No
Fill up missing offset samples with silence : Yes
Delete leading and trailing silent blocks : No
Null samples used in CRC calculations : Yes
Used interface : Installed external ASPI interface

Used output format : User Defined Encoder
Selected bitrate : 1024 kBit/s
Quality : High
Add ID3 tag : No
Command line compressor : C:\Program Files (x86)\Exact Audio Copy\Flac\flac.exe
Additional command line options : -6 -V -T "ARTIST=%artist%" -T "TITLE=%title%" -T "ALBUM=%albumtitle%" -T "DATE=%year%" -T "TRACKNUMBER=%tracknr%" -T "GENRE=%genre%" -T "COMMENT=%comment%" -T "BAND=%albuminterpret%" -T "ALBUMARTIST=%albuminterpret%" -T "COMPOSER=%composer%" %haslyrics%--tag-from-file=LYRICS="%lyricsfile%"%haslyrics% -T "DISCNUMBER=%cdnumber%" -T "TOTALDISCS=%totalcds%" -T "TOTALTRACKS=%numtracks%" %hascover%--picture="%coverfile%"%hascover% %source% -o %dest%


TOC of the extracted CD

Track | Start | Length | Start sector | End sector
---------------------------------------------------------
1 | 0:00.00 | 3:49.51 | 0 | 17225
2 | 3:49.51 | 6:25.60 | 17226 | 46160
3 | 10:15.36 | 4:24.13 | 46161 | 65973
4 | 14:39.49 | 4:37.64 | 65974 | 86812
5 | 19:17.38 | 10:36.32 | 86813 | 134544
6 | 29:53.70 | 5:13.63 | 134545 | 158082
7 | 35:07.58 | 4:55.34 | 158083 | 180241
8 | 40:03.17 | 5:07.23 | 180242 | 203289
9 | 45:10.40 | 5:46.40 | 203290 | 229279


Range status and errors

Selected range

Filename C:\mm\Бутурлина Анна\2002 - Black Coffee [EGJAZZ-011]\Анна Бутурлина - Black Coffee.wav

Peak level 92.7 %
Extraction speed 6.8 X
Range quality 99.9 %
Test CRC C13A66D6
Copy CRC C13A66D6
Copy OK

No errors occurred


AccurateRip summary

Track 1 accurately ripped (confidence 1) [72C0A87D] (AR v2)
Track 2 accurately ripped (confidence 1) [77344BDE] (AR v2)
Track 3 accurately ripped (confidence 1) [3AA03E60] (AR v2)
Track 4 accurately ripped (confidence 1) [1F1834B3] (AR v2)
Track 5 accurately ripped (confidence 1) [30E9ADA5] (AR v2)
Track 6 accurately ripped (confidence 1) [4F8EAC48] (AR v2)
Track 7 accurately ripped (confidence 1) [2C52D325] (AR v2)
Track 8 accurately ripped (confidence 1) [22D9D484] (AR v2)
Track 9 accurately ripped (confidence 1) [0C2BFE8F] (AR v2)

All tracks accurately ripped

End of status report

---- CUETools DB Plugin V2.1.6

[CTDB TOCID: Svn.hY563GbLC8KbeHLVBLdGSdM-] found
Submit result: Svn.hY563GbLC8KbeHLVBLdGSdM- has been confirmed
Track | CTDB Status
1 | (1/1) Accurately ripped
2 | (1/1) Accurately ripped
3 | (1/1) Accurately ripped
4 | (1/1) Accurately ripped
5 | (1/1) Accurately ripped
6 | (1/1) Accurately ripped
7 | (1/1) Accurately ripped
8 | (1/1) Accurately ripped
9 | (1/1) Accurately ripped
[свернуть]

Файл CUE

REM GENRE Jazz
REM DATE 2002
REM DISCID 700BF109
REM COMMENT "ExactAudioCopy v1.5"
PERFORMER "Анна Бутурлина"
TITLE "Black Coffee"
REM COMPOSER ""
FILE "Анна Бутурлина - Black Coffee.flac" WAVE
TRACK 01 AUDIO
TITLE "You Brought a New Kind of Love to Me"
PERFORMER "Анна Бутурлина"
REM COMPOSER "Sammy Fain/Irving Kahal"
INDEX 01 00:00:00
TRACK 02 AUDIO
TITLE "Mas Que Nada"
PERFORMER "Анна Бутурлина"
REM COMPOSER "Jorge Ben"
INDEX 01 03:49:51
TRACK 03 AUDIO
TITLE "Everything I Love"
PERFORMER "Анна Бутурлина"
REM COMPOSER "Cole Porter"
INDEX 01 10:15:36
TRACK 04 AUDIO
TITLE "Embraceable You"
PERFORMER "Анна Бутурлина"
REM COMPOSER "George & Ira Gershwin"
INDEX 01 14:39:49
TRACK 05 AUDIO
TITLE "Sister Sadie"
PERFORMER "Анна Бутурлина"
REM COMPOSER "Horace Silver"
INDEX 01 19:17:38
TRACK 06 AUDIO
TITLE "Зеркало"
PERFORMER "Анна Бутурлина"
REM COMPOSER "Юрий Саульский/Николай Денисов"
INDEX 01 29:53:70
TRACK 07 AUDIO
TITLE "Nobody Else But Me"
PERFORMER "Анна Бутурлина"
REM COMPOSER "Oscar Hammerstein/Jerome Kern"
INDEX 01 35:07:58
TRACK 08 AUDIO
TITLE "Black Coffee"
PERFORMER "Анна Бутурлина"
REM COMPOSER "Burke/Webster"
INDEX 01 40:03:17
TRACK 09 AUDIO
TITLE "Boogie Blues"
PERFORMER "Анна Бутурлина"
REM COMPOSER "Remo Biondi/Gene Krupa"
INDEX 01 45:10:40
[свернуть]

Лог проверки качества

AUDIOCHECKER v2.0 beta (build 457) - by Dester - [Ссылки могут видеть только зарегистрированные и активированные пользователи.]
[Only registered and activated users can see links.]
~~~~~~~~~~~~~~~~~~~~~~~~~~~~~~~~~~
-=== НЕ РЕДАКТИРУЙТЕ ЭТОТ ФАЙЛ! ===-

Путь: ...\2002 - Black Coffee [EGJAZZ-011]

1 -=- Анна Бутурлина - Black Coffee.flac -=- CDDA (100%)

113101268

---------------------

PERFORMER: auCDtect Task Manager, ver. 1.6.0 RC1 build 1.6.0.1
Copyright © 2008-2010 y-soft. All rights reserved
[Ссылки могут видеть только зарегистрированные и активированные пользователи.]
[Only registered and activated users can see links.]

ANALYZER: auCDtect: CD records authenticity detector, version 0.8.2
Copyright © 2004 Oleg Berngardt. All rights reserved.
Copyright © 2004 Alexander Djourik. All rights reserved.


FILE: Анна Бутурлина - Black Coffee.flac
Size: 324346921 Hash: 56F90C468AB71F0C44385E6DE7C71053 Accuracy: -m8
Conclusion: CDDA 99%
Signature: 88BB03C8EB39C760E298A4D674189100D8AB90BE
[свернуть]

Отчёт Dynamic Range Meter

Код:
foobar2000 1.6 / Замер динамического диапазона (DR) 1.1.1
Дата отчёта:		2021-06-05 01:24:55

--------------------------------------------------------------------------------
Анализ:   Анна Бутурлина / Black Coffee
--------------------------------------------------------------------------------

DR         Пики         RMS           Продолжительность трека
--------------------------------------------------------------------------------
DR10      -1.43 дБ   -13.74 дБ      3:50 01-You Brought a New Kind of Love to Me
DR10      -0.83 дБ   -13.23 дБ      6:26 02-Mas Que Nada
DR9       -1.83 дБ   -13.19 дБ      4:24 03-Everything I Love
DR12      -3.36 дБ   -19.84 дБ      4:38 04-Embraceable You
DR11      -0.66 дБ   -13.43 дБ     10:36 05-Sister Sadie
DR9       -1.96 дБ   -14.28 дБ      5:14 06-Зеркало
DR10      -1.19 дБ   -13.27 дБ      4:55 07-Nobody Else But Me
DR9       -1.48 дБ   -12.89 дБ      5:07 08-Black Coffee
DR9       -0.67 дБ   -11.38 дБ      5:47 09-Boogie Blues
--------------------------------------------------------------------------------

Количество треков:	9
Реальные значения DR:	DR10

Частота:			44100 Гц
Каналов:			2
Разрядность: 		16
Битрейт:			849 кбит/с
Кодек:			FLAC
================================================================================
[свернуть]

Спектр частот

[свернуть]

Скачать Анна Бутурлина - Black Coffee

[Ссылки могут видеть только зарегистрированные и активированные пользователи.]
[Only registered and activated users can see links.]

password: sergych
[свернуть]

Контрольная сумма (хеш-сумма) архива

MD5: 4145ea5ced3d046cfac80c40f7faf371
[свернуть]
My opinion of release: 10/10

Release info RInfo

Дебютный альбом исполнительницы, записанный 7 февраля 2002 года с концерта в Центральном доме художников.
__________________
TAIFUN.Wings of Soul

Вверх
3 пользователя(ей) сказали cпасибо:
Lighting1981 (15.06.2021), swint68 (13.06.2021), TAIFUN (15.06.2021)
 
Похожие темы
Тема Автор Раздел Ответов Последнее сообщение
Альбом Gramatik - Coffee Shop Selection TAIFUN Trip-hop 0 01.10.2015 23:38
VA Morning Coffee Vol.2 PUPOKIN Chill Out 0 28.03.2011 10:19
Nuclear Coffee VideoGet Tolich Audio Soft 0 20.01.2010 11:56
Релиз Katy Perry - Cup Of Coffee PUPOKIN Зарубежная Поп-Музыка 0 15.10.2009 11:25


Метки
2002 , black coffee , jazz , анна бутурлина

Опции темы

Ваши права в разделе
Вы не можете создавать новые темы
Вы не можете отвечать в темах
Вы не можете прикреплять вложения
Вы не можете редактировать свои сообщения

Быстрый переход


Текущее время: 01:45. Часовой пояс GMT +3.

© 2008 - 2021 Taifun With Song
Powered by vBulletin® Version 3.8.10
Copyright ©2000 - 2021, vBulletin Solutions, Inc. Перевод: zCarot
При поддержке NIC.UA
Яндекс.Метрика
0.22020 сек. | MySQL: 17