TAIFUN With Song - качественная и редкая музыка
Навигация
Thrash Metal Быстрый стремительный темп исполнения метала, скоростные низкочастотные гитарные риффы и высокочастотные соло. Гитарные ритм-партии при исполнении трэш-метала характеризуются приглушением вибрации струн ладонью (англ. palm muting) и стаккато при сильно искажённом звуке, вследствие чего приобретается некое «пыхтящее» звучание.

А знаете ли Вы, что...
Какой музыкант одобрил пытки заключённых в Гуантанамо своей музыкой?
«Для пыток заключённых в американской тюрьме на базе Гуантанамо нередко применяли композиции группы Metallica. Вокалист группы Джеймс Хэтфилд в интервью заявил, что не против такого использования музыки: «Мы мучили своих родителей и жён нашей музыкой много лет. Почему бы и не иракцев?».»
 
Опции темы

  #1
Старый 08.06.2022, 18:38
swint68
Релизёр
Досье
 
Аватар для swint68
FLAC Sacred Reich - Awakening [Japanese Edition]


2019 - Sacred Reich - Awakening [Japanese Edition]




Исполнитель/Artist: Sacred Reich
Альбом/Album: Awakening [Japanese Edition]
Год/Year: 2019
Жанр/Genre: Thrash Metal
Страна/Country: Япония
Рекорд-лейбл/Record label: Ward Records, Inc.; Chaos Reigns
Номер в каталоге/Catalogue #: GQCS-90750
Формат/Format: Free Lossless Audio Codec (*.flac)
Качество/Quality: Lossless
Тип рипа/RIP Type: image+.cue
Продолжительность/Length: 00:35:33
Источник/Source: Ilijan
Размер/Size: 310 MB

Сканы в комплекте

Треклист

01. Awakening
02. Divide & Conquer
03. Salvation
04. Manifest Reality
05. Killing Machine
06. Death Valley
07. Revolution
08. Something To Believe
09. Salvation (bonus' Demo)
[свернуть]

Превью на YouTube

[свернуть]

EAC лог

Exact Audio Copy V1.3 from 2. September 2016

EAC extraction logfile from 4. September 2019, 15:45

Sacred Reich / Awakening (Japan)

Used drive : ATAPI iHAS124 F Adapter: 2 ID: 0

Read mode : Secure
Utilize accurate stream : Yes
Defeat audio cache : Yes
Make use of C2 pointers : No

Read offset correction : 6
Overread into Lead-In and Lead-Out : No
Fill up missing offset samples with silence : Yes
Delete leading and trailing silent blocks : No
Null samples used in CRC calculations : Yes
Used interface : Installed external ASPI interface

Used output format : User Defined Encoder
Selected bitrate : 1024 kBit/s
Quality : High
Add ID3 tag : No
Command line compressor : C:\Program Files\FLAC\flac.exe
Additional command line options : -V -8 -T "Date=%year%" -T "Genre=%genre%" -T"COMMENT=Ripped by Ilijan [MeTaLMaDNeSS.TeaM]" -8 -V %source%


TOC of the extracted CD

Track | Start | Length | Start sector | End sector
---------------------------------------------------------
1 | 0:00.00 | 4:08.37 | 0 | 18636
2 | 4:08.37 | 3:40.38 | 18637 | 35174
3 | 7:49.00 | 4:00.00 | 35175 | 53174
4 | 11:49.00 | 4:44.44 | 53175 | 74518
5 | 16:33.44 | 3:18.35 | 74519 | 89403
6 | 19:52.04 | 5:22.54 | 89404 | 113607
7 | 25:14.58 | 2:48.26 | 113608 | 126233
8 | 28:03.09 | 3:24.72 | 126234 | 141605
9 | 31:28.06 | 4:05.28 | 141606 | 160008


Range status and errors

Selected range

Filename D:\Vknish+g.y.m.+angelito (a.k.a. deminbek)=3.14дарасы (Upload On Rutracker, DIE!!!)\Sacred Reich - Awakening (Japan).wav

Peak level 100.0 %
Extraction speed 7.7 X
Range quality 99.9 %
Test CRC BFA9CC55
Copy CRC BFA9CC55
Copy OK

No errors occurred


AccurateRip summary

Track 1 not present in database
Track 2 not present in database
Track 3 not present in database
Track 4 not present in database
Track 5 not present in database
Track 6 not present in database
Track 7 not present in database
Track 8 not present in database
Track 9 not present in database

None of the tracks are present in the AccurateRip database

End of status report

---- CUETools DB Plugin V2.1.6

[CTDB TOCID: Id1DtvoAgZR35u2FyRVIymPXqqM-] disk not present in database
Submit result: Id1DtvoAgZR35u2FyRVIymPXqqM- has been uploaded


==== Log checksum 74ECE2CCB2CAE3B23F6BCF03BD5C208C743B398DBDE69800EBD452ECC78D0449 ====
[свернуть]

Файл CUE

REM GENRE "Thrash Metal"
REM DATE 2019
REM DISCID 77085509
REM COMMENT "ExactAudioCopy v1.3"
PERFORMER "Sacred Reich"
TITLE "Awakening (Japan)"
FILE "Sacred Reich - Awakening (Japan).flac" WAVE
TRACK 01 AUDIO
TITLE "Awakening"
PERFORMER "Sacred Reich"
INDEX 01 00:00:00
TRACK 02 AUDIO
TITLE "Divide & Conquer"
PERFORMER "Sacred Reich"
INDEX 01 04:08:37
TRACK 03 AUDIO
TITLE "Salvation"
PERFORMER "Sacred Reich"
INDEX 01 07:49:00
TRACK 04 AUDIO
TITLE "Manifest Reality"
PERFORMER "Sacred Reich"
INDEX 01 11:49:00
TRACK 05 AUDIO
TITLE "Killing Machine"
PERFORMER "Sacred Reich"
INDEX 01 16:33:44
TRACK 06 AUDIO
TITLE "Death Valley"
PERFORMER "Sacred Reich"
INDEX 01 19:52:04
TRACK 07 AUDIO
TITLE "Revolution"
PERFORMER "Sacred Reich"
INDEX 01 25:14:58
TRACK 08 AUDIO
TITLE "Something To Believe"
PERFORMER "Sacred Reich"
INDEX 01 28:03:09
TRACK 09 AUDIO
TITLE "Salvation (Demo Version) (Bonus Track)"
PERFORMER "Sacred Reich"
INDEX 01 31:28:06
[свернуть]

Лог проверки качества

-----------------------

DON'T MODIFY THIS FILE

-----------------------

PERFORMER: auCDtect Task Manager, ver. 1.6.0 RC1 build 1.6.0.1
Copyright © 2008-2010 y-soft. All rights reserved
[Ссылки могут видеть только зарегистрированные и активированные пользователи.]
[Only registered and activated users can see links.]

ANALYZER: auCDtect: CD records authenticity detector, version 0.8.2
Copyright © 2004 Oleg Berngardt. All rights reserved.
Copyright © 2004 Alexander Djourik. All rights reserved.


FILE: Sacred Reich - Awakening (Japan).flac
Size: 240193632 Hash: BD348970AC4C855BE1564BFB93BA82F5 Accuracy: -m0
Conclusion: CDDA 100%
Signature: 120A76D3D3421FA964290047989C6A281BEA1430
[свернуть]

Скачать Sacred Reich - Awakening [Japanese Edition]

[Ссылки могут видеть только зарегистрированные и активированные пользователи.]
[Only registered and activated users can see links.]
[свернуть]

Вверх
 
Похожие темы
Тема Автор Раздел Ответов Последнее сообщение
Альбом Rage - Resurrection Day [Japanese Edition] swint68 Heavy Metal 0 23.09.2021 19:19
Релиз Stryper - No More Hell To Pay [Japanese Edition] PUPOKIN Heavy Metal 0 08.11.2013 10:09
Релиз Sebadoh - Defend Yourself [Japanese Edition] PUPOKIN Indie Rock 0 20.09.2013 10:30
Релиз ReinXeed - A New World [Japanese Edition] PUPOKIN Power Metal 0 07.09.2013 10:37
Релиз Ikon - The Awakening [Limited Edition] PUPOKIN Rock 0 30.12.2011 11:00


Метки
2019 , awakening , japanese edition , sacred reich , thrash metal

Опции темы

Ваши права в разделе
Вы не можете создавать новые темы
Вы не можете отвечать в темах
Вы не можете прикреплять вложения
Вы не можете редактировать свои сообщения

Быстрый переход


Текущее время: 22:40. Часовой пояс GMT +3.

© 2008 - 2022 Taifun With Song
Powered by vBulletin® Version 3.8.10
Copyright ©2000 - 2022, vBulletin Solutions, Inc. Перевод: zCarot
При поддержке NIC.UA
Яндекс.Метрика
0.59697 сек. | MySQL: 17