TAIFUN With Song - качественная и редкая музыка
Навигация
Heavy Metal Выражение "Heavy Metall" впервые появилось в романе известного американского писателя Уильяма Берроуза "Naked Lunch" (1959), где он использует этот термин для описания резкой, непривычной музыки. Элемент импровизации в истинном "металле" практически сведен к нулю, точнее - он отсутствует в традиционном смысле этого слова, однако опытные "металлические" группы (Metallica, Slayer, Megadeth) часто вводят в свои композиции очень сложные изменения ритма, и у неподготовленного слушателя может возникнуть ощущение какофонии, хотя речь идет о ритмической импровизации, по духу очень близкой той, которую исследуют серьезные современные композиторы.

А знаете ли Вы, что...
Почему обложку музыкального сборника
«В 2005 году Sony BMG выпустила музыкальный сборник ‘Electric 80s’. В оформлении обложки диска был использован большой штрих-код. Некоторые супермаркеты потерпели убытки после того, как их продавцы считывали сканерами именно этот штрих-код вместо обычного, располагающегося на обратной стороне диска. Сканеры распознавали по коду другой товар, который стоил дешевле. Во второй партии дисков обложка была изменена.»
 
Опции темы

  #1
Старый 26.05.2022, 16:16
swint68
Релизёр
Досье
 
Аватар для swint68
FLAC Blazon Stone - Live In The Dark


2019 - Blazon Stone - Live In The Dark




Исполнитель/Artist: Blazon Stone
Альбом/Album: Live In The Dark
Год/Year: 2019
Жанр/Genre: Heavy Metal, Power Metal, Speed Metal
Страна/Country: Соединённые Штаты
Рекорд-лейбл/Record label: Stormspell Records
Номер в каталоге/Catalogue #: SSR-DL-244
Формат/Format: Free Lossless Audio Codec (*.flac)
Качество/Quality: Lossless
Тип рипа/RIP Type: image+.cue
Продолжительность/Length: 00:55:03
Источник/Source: Ilijan
Размер/Size: 453 MB

Сканы в комплекте

Треклист

01. Intro (Instrumental)
02. Down In The Dark
03. Soldier Blue
04. A Traitor Among Us
05. Hanged Drawn and Quartered
06. Black Dawn Of The Crossbones
07. Eagle Warriors
08. Stand Your Line
09. Born To Be Wild
10. War Of The Roses
11. Fire The Cannons (bonus)
12. Rock Out (bonus)
[свернуть]

Превью на YouTube

[свернуть]

EAC лог

Exact Audio Copy V1.3 from 2. September 2016

EAC extraction logfile from 26. July 2019, 16:28

Blazon Stone / Live In The Dark

Used drive : ATAPI iHAS124 F Adapter: 2 ID: 0

Read mode : Secure
Utilize accurate stream : Yes
Defeat audio cache : Yes
Make use of C2 pointers : No

Read offset correction : 6
Overread into Lead-In and Lead-Out : No
Fill up missing offset samples with silence : Yes
Delete leading and trailing silent blocks : No
Null samples used in CRC calculations : Yes
Used interface : Installed external ASPI interface

Used output format : User Defined Encoder
Selected bitrate : 1024 kBit/s
Quality : High
Add ID3 tag : No
Command line compressor : C:\Program Files\FLAC\flac.exe
Additional command line options : -V -8 -T "Date=%year%" -T "Genre=%genre%" -T"COMMENT=Ripped by Ilijan [MeTaLMaDNeSS.TeaM]" -8 -V %source%


TOC of the extracted CD

Track | Start | Length | Start sector | End sector
---------------------------------------------------------
1 | 0:00.00 | 1:20.00 | 0 | 5999
2 | 1:20.00 | 3:48.42 | 6000 | 23141
3 | 5:08.42 | 4:12.42 | 23142 | 42083
4 | 9:21.09 | 5:47.32 | 42084 | 68140
5 | 15:08.41 | 4:33.10 | 68141 | 88625
6 | 19:41.51 | 4:08.00 | 88626 | 107225
7 | 23:49.51 | 3:37.10 | 107226 | 123510
8 | 27:26.61 | 4:35.32 | 123511 | 144167
9 | 32:02.18 | 4:05.53 | 144168 | 162595
10 | 36:07.71 | 10:13.53 | 162596 | 208623
11 | 46:21.49 | 5:12.26 | 208624 | 232049
12 | 51:34.00 | 3:29.69 | 232050 | 247793


Range status and errors

Selected range

Filename D:\Vknish+g.y.m.+angelito (a.k.a. deminbek)=3.14дарасы (Upload On Rutracker, DIE!!!)\Blazon Stone - Live In The Dark.wav

Peak level 100.0 %
Extraction speed 8.6 X
Range quality 100.0 %
Test CRC 0FECBBE6
Copy CRC 0FECBBE6
Copy OK

No errors occurred


AccurateRip summary

Track 1 not present in database
Track 2 not present in database
Track 3 not present in database
Track 4 not present in database
Track 5 not present in database
Track 6 not present in database
Track 7 not present in database
Track 8 not present in database
Track 9 not present in database
Track 10 not present in database
Track 11 not present in database
Track 12 not present in database

None of the tracks are present in the AccurateRip database

End of status report

---- CUETools DB Plugin V2.1.6

[CTDB TOCID: OPpyBASLm3Ew4csCWnfmHVeZwts-] disk not present in database
Submit result: OPpyBASLm3Ew4csCWnfmHVeZwts- has been uploaded


==== Log checksum 657893AD1848FD3B451FA833A8358EB591F991A62FF979D4DBA721A7EF8B2F8B ====
[свернуть]

Файл CUE

REM GENRE "Power Metal"
REM DATE 2019
REM DISCID 990CE70C
REM COMMENT "ExactAudioCopy v1.3"
PERFORMER "Blazon Stone"
TITLE "Live In The Dark"
FILE "Blazon Stone - Live In The Dark.flac" WAVE
TRACK 01 AUDIO
TITLE "Intro"
PERFORMER "Blazon Stone"
INDEX 01 00:00:00
TRACK 02 AUDIO
TITLE "Down In The Dark"
PERFORMER "Blazon Stone"
INDEX 01 01:20:00
TRACK 03 AUDIO
TITLE "Soldier Blue"
PERFORMER "Blazon Stone"
INDEX 01 05:08:42
TRACK 04 AUDIO
TITLE "A Traitor Among Us"
PERFORMER "Blazon Stone"
INDEX 01 09:21:09
TRACK 05 AUDIO
TITLE "Hanged Drawn And Quartered"
PERFORMER "Blazon Stone"
INDEX 01 15:08:41
TRACK 06 AUDIO
TITLE "Black Dawn Of The Crossbones"
PERFORMER "Blazon Stone"
INDEX 01 19:41:51
TRACK 07 AUDIO
TITLE "Eagle Warriors"
PERFORMER "Blazon Stone"
INDEX 01 23:49:51
TRACK 08 AUDIO
TITLE "Stand Your Line"
PERFORMER "Blazon Stone"
INDEX 01 27:26:61
TRACK 09 AUDIO
TITLE "Born To Be Wild"
PERFORMER "Blazon Stone"
INDEX 01 32:02:18
TRACK 10 AUDIO
TITLE "War Of The Roses"
PERFORMER "Blazon Stone"
INDEX 01 36:07:71
TRACK 11 AUDIO
TITLE "Fire The Cannons (Bonus Track)"
PERFORMER "Blazon Stone"
INDEX 01 46:21:49
TRACK 12 AUDIO
TITLE "Rock On (Bonus Track)"
PERFORMER "Blazon Stone"
INDEX 01 51:34:00
[свернуть]

Лог проверки качества

-----------------------

DON'T MODIFY THIS FILE

-----------------------

PERFORMER: auCDtect Task Manager, ver. 1.6.0 RC1 build 1.6.0.1
Copyright © 2008-2010 y-soft. All rights reserved
[Ссылки могут видеть только зарегистрированные и активированные пользователи.]
[Only registered and activated users can see links.]

ANALYZER: auCDtect: CD records authenticity detector, version 0.8.2
Copyright © 2004 Oleg Berngardt. All rights reserved.
Copyright © 2004 Alexander Djourik. All rights reserved.


FILE: Blazon Stone - Live In The Dark.flac
Size: 432769885 Hash: 03BC1F2EC56DA0D74055C3C116C739B3 Accuracy: -m0
Conclusion: CDDA 100%
Signature: E4879C3C993C7A741A77CA355B655C66E9499F50
[свернуть]

Скачать Blazon Stone - Live In The Dark

[Ссылки могут видеть только зарегистрированные и активированные пользователи.]
[Only registered and activated users can see links.]
[свернуть]

Вверх
Пользователь сказал cпасибо:
TAIFUN (27.05.2022)
 
Похожие темы
Тема Автор Раздел Ответов Последнее сообщение
Релиз Queens Of The Stone Age - Queens Of The Stone Age PUPOKIN Rock 0 22.02.2011 10:16
Релиз Stone Roses - The Stone Roses PUPOKIN Indie Rock 0 03.12.2009 10:08
Dark Tranquillity - Final Resistance [Live In Milan] PUPOKIN Видеоклипы 0 04.10.2009 13:34
Релиз Folk Stone - Folk Stone PUPOKIN Folk Metal 0 09.01.2009 11:33
Dark Soldier - Dark Soldier (Bladerunner & Vapour Remix's) DarkDan Drum & Bass 0 27.04.2008 16:49


Метки
2019 , blazon stone , heavy metal , live , power metal , speed metal

Опции темы

Ваши права в разделе
Вы не можете создавать новые темы
Вы не можете отвечать в темах
Вы не можете прикреплять вложения
Вы не можете редактировать свои сообщения

Быстрый переход


Текущее время: 23:52. Часовой пояс GMT +3.

© 2008 - 2022 Taifun With Song
Powered by vBulletin® Version 3.8.10
Copyright ©2000 - 2022, vBulletin Solutions, Inc. Перевод: zCarot
При поддержке NIC.UA
Яндекс.Метрика
0.19237 сек. | MySQL: 17