TAIFUN With Song - качественная и редкая музыка
Навигация
Heavy Metal Выражение "Heavy Metall" впервые появилось в романе известного американского писателя Уильяма Берроуза "Naked Lunch" (1959), где он использует этот термин для описания резкой, непривычной музыки. Элемент импровизации в истинном "металле" практически сведен к нулю, точнее - он отсутствует в традиционном смысле этого слова, однако опытные "металлические" группы (Metallica, Slayer, Megadeth) часто вводят в свои композиции очень сложные изменения ритма, и у неподготовленного слушателя может возникнуть ощущение какофонии, хотя речь идет о ритмической импровизации, по духу очень близкой той, которую исследуют серьезные современные композиторы.

А знаете ли Вы, что...
За какие заслуги музыкантов принимают в «Клуб 27»?
«Среди известных рок- и блюз-музыкантов весьма значительна доля тех, кто умер в 27 лет. Именно в этом возрасте почему-то возникает статистическая погрешность, выделяющаяся из нормального распределения. Для таких музыкантов даже приняли название «Клуб 27». В него включают Джима Моррисона, Джими Хендрикса, Дженис Джоплин, Курта Кобейна и Брайана Джонса. В 27 лет умер также легендарный советский рок-музыкант и поэт Александр Башлачёв.»
 
Опции темы

  #1
Старый 13.04.2022, 08:48
swint68
Релизёр
Досье
 
Аватар для swint68
FLAC Wolf - Feeding The Machine [Limited Edition]


2020 - Wolf - Feeding The Machine [Limited Edition]




Исполнитель/Artist: Wolf
Альбом/Album: Feeding The Machine [Limited Edition]
Год/Year: 2020
Жанр/Genre: Heavy Metal
Страна/Country: Германия
Рекорд-лейбл/Record label: Century Media Records
Номер в каталоге/Catalogue #: 19439700132
Формат/Format: Free Lossless Audio Codec (*.flac)
Качество/Quality: Lossless
Тип рипа/RIP Type: image+.cue
Продолжительность/Length: 00:50:47
Источник/Source: Ilijan
Размер/Size: 435 MB

Сканы в комплекте

Треклист

01. Shoot To Kill
02. Guillotine
03. Dead Man's Hand
04. Midnight Hour
05. Mass Confusion
06. The Cold Emptiness
07. Feeding The Machine
08. Devil In The Flesh
09. Spoon Bender
10. The Raven
11. Black Widow
12. A Thief Inside
13. Atlantis (bonus' Angel Witch cover)
[свернуть]

Превью на YouTube

[свернуть]

EAC лог

Exact Audio Copy V1.5 from 20. February 2020

EAC extraction logfile from 1. August 2020, 18:12

Wolf / Feeding The Machine

Used drive : ATAPI iHAS124 F Adapter: 1 ID: 0

Read mode : Secure
Utilize accurate stream : Yes
Defeat audio cache : Yes
Make use of C2 pointers : No

Read offset correction : 6
Overread into Lead-In and Lead-Out : No
Fill up missing offset samples with silence : Yes
Delete leading and trailing silent blocks : No
Null samples used in CRC calculations : Yes
Used interface : Native Win32 interface for Win NT & 2000

Used output format : User Defined Encoder
Selected bitrate : 1024 kBit/s
Quality : High
Add ID3 tag : No
Command line compressor : C:\Program Files (x86)\FLAC Frontend\tools\flac.exe
Additional command line options : -V -8 -T "Date=%year%" -T "Genre=%genre%" -T"COMMENT=Ripped by Ilijan [MeTaLMaDNeSS.TeaM]" -8 -V %source%


TOC of the extracted CD

Track | Start | Length | Start sector | End sector
---------------------------------------------------------
1 | 0:00.00 | 3:41.17 | 0 | 16591
2 | 3:41.17 | 4:05.52 | 16592 | 35018
3 | 7:46.69 | 3:10.20 | 35019 | 49288
4 | 10:57.14 | 3:22.42 | 49289 | 64480
5 | 14:19.56 | 4:12.60 | 64481 | 83440
6 | 18:32.41 | 3:47.19 | 83441 | 100484
7 | 22:19.60 | 3:49.01 | 100485 | 117660
8 | 26:08.61 | 3:18.34 | 117661 | 132544
9 | 29:27.20 | 3:26.53 | 132545 | 148047
10 | 32:53.73 | 4:29.66 | 148048 | 168288
11 | 37:23.64 | 4:00.73 | 168289 | 186361
12 | 41:24.62 | 5:34.51 | 186362 | 211462
13 | 46:59.38 | 3:48.11 | 211463 | 228573


Range status and errors

Selected range

Filename E:\Vknish+g.y.m.+angelito (a.k.a. deminbek)=3.14дарасы (Upload On Rutracker, DIE!!!)\Wolf - Feeding The Machine.wav

Peak level 100.0 %
Extraction speed 8.7 X
Range quality 100.0 %
Test CRC 3001D8E9
Copy CRC 3001D8E9
Copy OK

No errors occurred


AccurateRip summary

Track 1 accurately ripped (confidence 2) [DCCC8E46] (AR v2)
Track 2 accurately ripped (confidence 2) [0FB4A39E] (AR v2)
Track 3 accurately ripped (confidence 2) [6DB83D16] (AR v2)
Track 4 accurately ripped (confidence 2) [90D02F26] (AR v2)
Track 5 accurately ripped (confidence 2) [CC37E53A] (AR v2)
Track 6 accurately ripped (confidence 2) [7FB0BF8A] (AR v2)
Track 7 accurately ripped (confidence 2) [BF9C8E78] (AR v2)
Track 8 accurately ripped (confidence 2) [E5DDC8BC] (AR v2)
Track 9 accurately ripped (confidence 2) [EECA0F3D] (AR v2)
Track 10 accurately ripped (confidence 2) [C1013258] (AR v2)
Track 11 accurately ripped (confidence 2) [7A109263] (AR v2)
Track 12 accurately ripped (confidence 2) [6B09A7E3] (AR v2)
Track 13 accurately ripped (confidence 2) [A7DDA3E1] (AR v2)

All tracks accurately ripped

End of status report

---- CUETools DB Plugin V2.1.6

[CTDB TOCID: dDrwjF8CD9gVauINUybz1.oeUuI-] found
Submit result: dDrwjF8CD9gVauINUybz1.oeUuI- has been confirmed
Track | CTDB Status
1 | (18/18) Accurately ripped
2 | (18/18) Accurately ripped
3 | (18/18) Accurately ripped
4 | (18/18) Accurately ripped
5 | (18/18) Accurately ripped
6 | (18/18) Accurately ripped
7 | (18/18) Accurately ripped
8 | (18/18) Accurately ripped
9 | (18/18) Accurately ripped
10 | (18/18) Accurately ripped
11 | (18/18) Accurately ripped
12 | (18/18) Accurately ripped
13 | (18/18) Accurately ripped


==== Log checksum 9CA30EF4CDFF1BDA60B2BCE9A820872A2981714D475D1E66680F5AEABDEF17F9 ====
[свернуть]

Файл CUE

REM GENRE "Heavy Metal"
REM DATE 2020
REM DISCID B60BE70D
REM COMMENT "ExactAudioCopy v1.5"
PERFORMER "Wolf"
TITLE "Feeding The Machine"
FILE "Wolf - Feeding The Machine.flac" WAVE
TRACK 01 AUDIO
TITLE "Shoot To Kill"
PERFORMER "Wolf"
INDEX 01 00:00:00
TRACK 02 AUDIO
TITLE "Guillotine"
PERFORMER "Wolf"
INDEX 00 03:41:05
INDEX 01 03:41:17
TRACK 03 AUDIO
TITLE "Dead Man's Hand"
PERFORMER "Wolf"
INDEX 00 07:46:23
INDEX 01 07:46:69
TRACK 04 AUDIO
TITLE "Midnight Hour"
PERFORMER "Wolf"
INDEX 00 10:56:48
INDEX 01 10:57:14
TRACK 05 AUDIO
TITLE "Mass Confusion"
PERFORMER "Wolf"
INDEX 00 14:19:50
INDEX 01 14:19:56
TRACK 06 AUDIO
TITLE "The Cold Emptiness"
PERFORMER "Wolf"
INDEX 00 18:32:16
INDEX 01 18:32:41
TRACK 07 AUDIO
TITLE "Feeding The Machine"
PERFORMER "Wolf"
INDEX 00 22:19:42
INDEX 01 22:19:60
TRACK 08 AUDIO
TITLE "Devil In The Flesh"
PERFORMER "Wolf"
INDEX 00 26:08:50
INDEX 01 26:08:61
TRACK 09 AUDIO
TITLE "Spoon Bender"
PERFORMER "Wolf"
INDEX 00 29:26:73
INDEX 01 29:27:20
TRACK 10 AUDIO
TITLE "The Raven"
PERFORMER "Wolf"
INDEX 00 32:53:52
INDEX 01 32:53:73
TRACK 11 AUDIO
TITLE "Black Widow"
PERFORMER "Wolf"
INDEX 00 37:23:42
INDEX 01 37:23:64
TRACK 12 AUDIO
TITLE "A Thief Inside"
PERFORMER "Wolf"
INDEX 00 41:24:54
INDEX 01 41:24:62
TRACK 13 AUDIO
TITLE "Atlantis (Angel Witch Cover) (Bonus Track)"
PERFORMER "Wolf"
INDEX 00 46:58:74
INDEX 01 46:59:38
[свернуть]

Лог проверки качества

-----------------------

DON'T MODIFY THIS FILE

-----------------------

PERFORMER: auCDtect Task Manager, ver. 1.6.0 RC1 build 1.6.0.1
Copyright © 2008-2010 y-soft. All rights reserved
[Ссылки могут видеть только зарегистрированные и активированные пользователи.]
[Only registered and activated users can see links.]

ANALYZER: auCDtect: CD records authenticity detector, version 0.8.2
Copyright © 2004 Oleg Berngardt. All rights reserved.
Copyright © 2004 Alexander Djourik. All rights reserved.


FILE: Wolf - Feeding The Machine.flac
Size: 397097418 Hash: 67ED842C5B4B560A909C2DEB1E092039 Accuracy: -m0
Conclusion: CDDA 99%
Signature: B1DEE3E8EFFDD4013025953B430654796B22CD6F
[свернуть]

Скачать Wolf - Feeding The Machine [Limited Edition]

[Ссылки могут видеть только зарегистрированные и активированные пользователи.]
[Only registered and activated users can see links.]
[свернуть]

Вверх
2 пользователя(ей) сказали cпасибо:
sergych (24.04.2022), TAIFUN (17.04.2022)
 
Похожие темы
Тема Автор Раздел Ответов Последнее сообщение
Релиз Haken - The Mountain [Limited Edition] PUPOKIN Heavy Metal 0 27.08.2013 10:28
Grendel - Timewave Zero [Limited Edition] PUPOKIN Electro 0 29.04.2012 09:51
Релиз Karl Wolf - Ghetto Love (Deluxe Edition) PUPOKIN R&B 0 29.08.2011 10:40
Rammstein - Volkerball (Limited Edition 2 CD) fly123 Industrial Metal 0 28.08.2011 14:09
Сингл Esthetic Education - Machine / Leave Us Alone (Limited Edition) sergych Pop Rock 0 05.06.2011 20:07


Метки
2020 , feeding the machine , heavy metal , limited edition , wolf

Опции темы

Ваши права в разделе
Вы не можете создавать новые темы
Вы не можете отвечать в темах
Вы не можете прикреплять вложения
Вы не можете редактировать свои сообщения

Быстрый переход


Текущее время: 00:07. Часовой пояс GMT +3.

© 2008 - 2022 Taifun With Song
Powered by vBulletin® Version 3.8.10
Copyright ©2000 - 2022, vBulletin Solutions, Inc. Перевод: zCarot
При поддержке NIC.UA
Яндекс.Метрика
0.44121 сек. | MySQL: 17