TAIFUN With Song - качественная и редкая музыка
Навигация
Black Metal Блэк-метал характеризуется крайне скоростными барабанными (бласт-бит) и гитарными партиями. Звук гитар делается резким и высоким. Характерный приём игры — тремоло. Вокал обычно очень высокий (скриминг), встречаются вставки низкого «рычащего» вокала — гроулинга.

А знаете ли Вы, что...
Что поётся в песенке «уно-уно-уно, ун моменто»?
«Песенка «уно-уно-уно, ун моменто» из фильма «Формула любви» кажется написанной на итальянском языке. В действительности её текст представляет собой несвязный набор из итальянских слов, а придуман он был композитором фильма Геннадием Гладковым.»
 
Опции темы

  #1
Старый 06.03.2022, 18:20
swint68
Релизёр
Досье
 
Аватар для swint68
FLAC Dimmu Borgir - In Sorte Diaboli [Japanese Edition]


2007 (2020) - Dimmu Borgir - In Sorte Diaboli [Japanese Edition]




Исполнитель/Artist: Dimmu Borgir
Альбом/Album: In Sorte Diaboli [Japanese Edition]
Год/Year: 2007
Ремастеринг/Remaster: 2020
Жанр/Genre: Symphonic Black Metal
Страна/Country: Япония
Рекорд-лейбл/Record label: Avalon; Marquee Inc.
Номер в каталоге/Catalogue #: MICP-30130
Формат/Format: Free Lossless Audio Codec (*.flac)
Качество/Quality: Lossless
Тип рипа/RIP Type: image+.cue
Продолжительность/Length: 00:46:11
Источник/Source: Ilijan
Размер/Size: 495 MB

Сканы в комплекте

Треклист

01. The Serpentine Offering
02. The Chosen Legacy
03. The Conspiracy Unfolds
04. The Sacrilegious Scorn
05. The Fallen Arises (Instrumental)
06. The Sinister Awakening
07. The Fundamental Alienation
08. The Invaluable Darknes
09. The Foreshadowing Furnace
10. Black Metal (bonus' Venom cover)
[свернуть]

Превью на YouTube

[свернуть]

EAC лог

Exact Audio Copy V1.5 from 20. February 2020

EAC extraction logfile from 16. September 2020, 11:26

Dimmu Borgir / In Sorte Diaboli (Japan 2020)

Used drive : ATAPI iHAS124 F Adapter: 1 ID: 1

Read mode : Secure
Utilize accurate stream : Yes
Defeat audio cache : Yes
Make use of C2 pointers : No

Read offset correction : 6
Overread into Lead-In and Lead-Out : No
Fill up missing offset samples with silence : Yes
Delete leading and trailing silent blocks : No
Null samples used in CRC calculations : Yes
Used interface : Native Win32 interface for Win NT & 2000

Used output format : User Defined Encoder
Selected bitrate : 1024 kBit/s
Quality : High
Add ID3 tag : No
Command line compressor : C:\Program Files (x86)\FLAC Frontend\tools\flac.exe
Additional command line options : -V -8 -T "Date=%year%" -T "Genre=%genre%" -T"COMMENT=Ripped by Ilijan [MeTaLMaDNeSS.TeaM]" -8 -V %source%


TOC of the extracted CD

Track | Start | Length | Start sector | End sector
---------------------------------------------------------
1 | 0:00.00 | 5:09.16 | 0 | 23190
2 | 5:09.16 | 4:16.70 | 23191 | 42460
3 | 9:26.11 | 5:23.31 | 42461 | 66716
4 | 14:49.42 | 4:00.48 | 66717 | 84764
5 | 18:50.15 | 2:59.14 | 84765 | 98203
6 | 21:49.29 | 5:09.13 | 98204 | 121391
7 | 26:58.42 | 5:17.23 | 121392 | 145189
8 | 32:15.65 | 4:44.05 | 145190 | 166494
9 | 36:59.70 | 5:48.62 | 166495 | 192656
10 | 42:48.57 | 3:22.32 | 192657 | 207838


Range status and errors

Selected range

Filename E:\Vknish+g.y.m.+angelito (a.k.a. deminbek)=3.14дарасы (Upload On Rutracker, DIE!!!)\Dimmu Borgir - In Sorte Diaboli (Japan 2020).wav

Peak level 99.9 %
Extraction speed 5.5 X
Range quality 99.9 %
Test CRC BAC5B385
Copy CRC BAC5B385
Copy OK

No errors occurred


AccurateRip summary

Track 1 cannot be verified as accurate (confidence 9) [A12DB045], AccurateRip returned [5635A604] (AR v2)
Track 2 cannot be verified as accurate (confidence 9) [28A850D6], AccurateRip returned [9D295FDA] (AR v2)
Track 3 cannot be verified as accurate (confidence 9) [6B6F1B19], AccurateRip returned [26370C21] (AR v2)
Track 4 cannot be verified as accurate (confidence 9) [EC8088B0], AccurateRip returned [DAFC879D] (AR v2)
Track 5 cannot be verified as accurate (confidence 9) [67A7E3B8], AccurateRip returned [DD5358F4] (AR v2)
Track 6 cannot be verified as accurate (confidence 9) [312CE460], AccurateRip returned [F13F8483] (AR v2)
Track 7 cannot be verified as accurate (confidence 9) [4B7E4259], AccurateRip returned [C078D08B] (AR v2)
Track 8 cannot be verified as accurate (confidence 9) [59AFCA5C], AccurateRip returned [C0A7392B] (AR v2)
Track 9 cannot be verified as accurate (confidence 9) [0969B6E2], AccurateRip returned [24166BAA] (AR v2)
Track 10 cannot be verified as accurate (confidence 9) [9663C2A4], AccurateRip returned [6FCDFD7F] (AR v2)

No tracks could be verified as accurate
You may have a different pressing from the one(s) in the database

End of status report

---- CUETools DB Plugin V2.1.6

[CTDB TOCID: f_yFyle.ddRjuqqJV0fZ_CYfTYw-] found
Submit result: f_yFyle.ddRjuqqJV0fZ_CYfTYw- has been confirmed
Track | CTDB Status
1 | (35/35) Accurately ripped
2 | (35/35) Accurately ripped
3 | (35/35) Accurately ripped
4 | (35/35) Accurately ripped
5 | (35/35) Accurately ripped
6 | (35/35) Accurately ripped
7 | (35/35) Accurately ripped
8 | (35/35) Accurately ripped
9 | (35/35) Accurately ripped
10 | (35/35) Accurately ripped


==== Log checksum 2DE920A10513D20CEC14D86AAA070EA4D4EBB52702BA03992759EABD62DC9F8F ====
[свернуть]

Файл CUE

REM GENRE "Symphonic Black Metal"
REM DATE 2007
REM DISCID 6B0AD30A
REM COMMENT "ExactAudioCopy v1.5"
PERFORMER "Dimmu Borgir"
TITLE "In Sorte Diaboli (Japan 2020)"
FILE "Dimmu Borgir - In Sorte Diaboli (Japan 2020).flac" WAVE
TRACK 01 AUDIO
TITLE "The Serpentine Offering"
PERFORMER "Dimmu Borgir"
FLAGS DCP
INDEX 01 00:00:00
TRACK 02 AUDIO
TITLE "The Chosen Legacy"
PERFORMER "Dimmu Borgir"
FLAGS DCP
INDEX 01 05:09:16
TRACK 03 AUDIO
TITLE "The Conspiracy Unfolds"
PERFORMER "Dimmu Borgir"
FLAGS DCP
INDEX 01 09:26:11
TRACK 04 AUDIO
TITLE "The Sacrilegious Scorn"
PERFORMER "Dimmu Borgir"
FLAGS DCP
INDEX 00 14:49:03
INDEX 01 14:49:42
TRACK 05 AUDIO
TITLE "The Fallen Arises"
PERFORMER "Dimmu Borgir"
FLAGS DCP
INDEX 01 18:50:15
TRACK 06 AUDIO
TITLE "The Sinister Awakening"
PERFORMER "Dimmu Borgir"
FLAGS DCP
INDEX 01 21:49:29
TRACK 07 AUDIO
TITLE "The Fundamental Alienation"
PERFORMER "Dimmu Borgir"
FLAGS DCP
INDEX 01 26:58:42
TRACK 08 AUDIO
TITLE "The Invaluable Darkness"
PERFORMER "Dimmu Borgir"
FLAGS DCP
INDEX 01 32:15:65
TRACK 09 AUDIO
TITLE "The Foreshadowing Furnace"
PERFORMER "Dimmu Borgir"
FLAGS DCP
INDEX 01 36:59:70
TRACK 10 AUDIO
TITLE "Black Metal (Bonus Track)"
PERFORMER "Dimmu Borgir"
FLAGS DCP
INDEX 01 42:48:57
[свернуть]

Лог проверки качества

-----------------------

DON'T MODIFY THIS FILE

-----------------------

PERFORMER: auCDtect Task Manager, ver. 1.6.0 RC1 build 1.6.0.1
Copyright © 2008-2010 y-soft. All rights reserved
[Ссылки могут видеть только зарегистрированные и активированные пользователи.]
[Only registered and activated users can see links.]

ANALYZER: auCDtect: CD records authenticity detector, version 0.8.2
Copyright © 2004 Oleg Berngardt. All rights reserved.
Copyright © 2004 Alexander Djourik. All rights reserved.


FILE: Dimmu Borgir - In Sorte Diaboli (Japan 2020).flac
Size: 380114504 Hash: C694469A6EAE33316B2B1FC431E36516 Accuracy: -m0
Conclusion: CDDA 100%
Signature: 66E5C9D2EC7B6282352CC789F76D4BA6AB49E1A2
[свернуть]

Скачать Dimmu Borgir - In Sorte Diaboli [Japanese Edition]

[Ссылки могут видеть только зарегистрированные и активированные пользователи.]
[Only registered and activated users can see links.]
[свернуть]

Вверх
Пользователь сказал cпасибо:
sergych (07.03.2022)
 
Похожие темы
Тема Автор Раздел Ответов Последнее сообщение
Альбом Rage - Resurrection Day [Japanese Edition] swint68 Heavy Metal 0 23.09.2021 19:19
Релиз Stryper - No More Hell To Pay [Japanese Edition] PUPOKIN Heavy Metal 0 08.11.2013 10:09
Релиз Sebadoh - Defend Yourself [Japanese Edition] PUPOKIN Indie Rock 0 20.09.2013 10:30
Релиз ReinXeed - A New World [Japanese Edition] PUPOKIN Power Metal 0 07.09.2013 10:37
Релиз Dimmu Borgir - Abrahadabra PUPOKIN Symphonic Metal 0 28.12.2010 10:45


Метки
2007 , black metal , dimmu borgir , japanese edition , symphonic metal

Опции темы

Ваши права в разделе
Вы не можете создавать новые темы
Вы не можете отвечать в темах
Вы не можете прикреплять вложения
Вы не можете редактировать свои сообщения

Быстрый переход


Текущее время: 23:40. Часовой пояс GMT +3.

© 2008 - 2022 Taifun With Song
Powered by vBulletin® Version 3.8.10
Copyright ©2000 - 2022, vBulletin Solutions, Inc. Перевод: zCarot
При поддержке NIC.UA
Яндекс.Метрика
0.18601 сек. | MySQL: 17