TAIFUN With Song
Навигация
Jazz и Blues Гибкая ритмика, импровизационное начало, гармонии и мелодии - все это Jazz. Blues - жизнеутверждающая музыка, рожденная из душевной боли

А знаете ли Вы, что...
Какой сюрприз преподнесла группа Muse, когда её вынудили играть под фонограмму?
«Однажды группу Muse пригласили выступать на итальянском телевидении, но вынудили делать это под фонограмму. Музыканты не стали бойкотировать выступление. но поменялись ролями. Солист и гитарист Мэттью Беллами сел за ударные, ударник Доминик Ховард встал с бас-гитарой за микрофон, а бас-гитарист Крис Уолстенхолм взял гитару и встал за клавишные. А после исполнения песни ударник ещё и ответил на вопросы в качестве фронтмена.»
 
Опции темы

  #1
Старый 28.05.2016, 11:10
sergych
Координатор
Досье
 
Аватар для sergych
Релиз Chris Rea - The Blue Guitars


2005 - Chris Rea - The Blue Guitars




Исполнитель/Artist: Chris Rea
Альбом/Album: The Blue Guitars
Год/Year: 2005
Жанр/Genre: Blues, Blues Rock
Страна/Country: Германия
Рекорд-лейбл/Record label: Jazzee Blue
Номер в каталоге/Catalogue #: 9783937406329 / 3-937406-32-8
Формат/Format: Free Lossless Audio Codec (*.flac)
Качество/Quality: Lossless
Тип рипа/RIP Type: image+.cue
Продолжительность/Length: 10:13:50
Источник/Source: Собственный рип
Размер/Size: 3.9 GB

Сканы в комплекте

Треклист

Album One. Beginnings
Album Two. Country Blues
Album Three. Louisiana & New Orleans
Album Four. Electric Memphis Blues
Album Five. Texas Blues
Album Six. Chicago Blues
Album Seven. Blues Ballads
Album Eight. Gospel Soul Blues & Motown
Album Nine. Celtic & Irish Blues
Album Ten. Latin Blues
Album Eleven. '60s and '70s
Album Twelve. Dancing Down The Stony Road DVD
[свернуть]

youtube.com

[свернуть]

Исполнители/Performers

Chris Rea: electric guitar, piano, harmonica, dobro, mandolin, banjo, acoustic slide guitar, bottleneck slide, bass, calimba, balafon, vibraphone, hammond organ, percussion, drums
Robert Ahwai: guitar
Sylvin Marc: bass
Gerry O'Connor: banjo
Ed Hession: accordion
Martin Ditcham: drums
[свернуть]

Скачать Chris Rea - The Blue Guitars

[Ссылки могут видеть только зарегистрированные и активированные пользователи.]
[Only registered and activated users can see links.]

password: sergych
[свернуть]
My opinion of release: 10/10

Release info RInfo

11 audio albums and a DVD comes with a 72-page hardback book including more than 30 paintings, photos, lyrics and an interview with Chris Rea.

DVD из раздачи исключён, а по ссылке соответствующего поста находятся сканы конверта и диска.

Ввиду приличного объёма информации, я принял решение о таком оформлении, - каждому диску свой пост в данной теме.

И чуть-чуть об истории этой темы.
С этим сетом я ознакомился (скачал mp3, послушал и... отложил в сторону, поскольку показалось мне довольно скучно) году в 2007-8. Пару лет назад, встретив его в продаже, решил переслушать и... зацепило. Так он появился у меня и был бы давно выложен, если бы не размер буклета (28,5 х 28,5 см). Лишь месяц назад удалось получить (на несколько часов) доступ к сканеру формата А3, чтобы оцифровать буклет полностью (кстати, сам буклет, в отличие от аудио-рипов и сканов конвертов, обнаружить за эти годы в сети мне так и не удалость ).
__________________
TAIFUN.Wings of Soul

Вверх
2 пользователя(ей) сказали cпасибо:
johnsilver (23.07.2016), swint68 (04.12.2018)
  #2
Старый 28.05.2016, 11:33
sergych
Координатор
Досье
 
Аватар для sergych
Релиз Re: Chris Rea - The Blue Guitars


2005 - Chris Rea - Album One. Beginnings




Исполнитель/Artist: Chris Rea
Альбом/Album: Album One. Beginnings
Год/Year: 2005
Жанр/Genre: Blues
Страна/Country: Германия
Рекорд-лейбл/Record label: Jazzee Blue
Номер в каталоге/Catalogue #: ST0004 CD1
Формат/Format: Free Lossless Audio Codec (*.flac)
Качество/Quality: Lossless
Тип рипа/RIP Type: image+.cue
Продолжительность/Length: 00:54:10
Источник/Source: Собственный рип
Размер/Size: 345.7 MB

Сканы в комплекте

Треклист

01. West Africa [0:04:16.03]
02. Cry For Home [0:04:58.05]
03. The King Who Sold His Own [0:05:18.08]
04. White Man Coming [0:04:01.68]
05. Where The Blues Come From [0:06:19.09]
06. Lord Tell Me It Won't Be Long [0:04:58.07]
07. Work Gang [0:04:33.46]
08. Praise The Lord [0:04:41.62]
09. Sweet Sunday [0:05:39.03]
10. Sing Out The Devil [0:06:08.69]
11. Boss Man Cut My Chains [0:03:15.20]
[свернуть]

youtube.com

[свернуть]

EAC лог

Exact Audio Copy V1.1 from 23. June 2015

EAC extraction logfile from 10. May 2016, 21:07

Chris Rea / CD01. Beginnings

Used drive : ATAPI iHAS124 D Adapter: 0 ID: 2

Read mode : Secure
Utilize accurate stream : Yes
Defeat audio cache : Yes
Make use of C2 pointers : No

Read offset correction : 6
Overread into Lead-In and Lead-Out : No
Fill up missing offset samples with silence : Yes
Delete leading and trailing silent blocks : No
Null samples used in CRC calculations : Yes
Used interface : Installed external ASPI interface

Used output format : User Defined Encoder
Selected bitrate : 1024 kBit/s
Quality : High
Add ID3 tag : Yes
Command line compressor : C:\Program Files (x86)\Exact Audio Copy\Flac\flac.exe
Additional command line options : -6 -V -T "ARTIST=%artist%" -T "TITLE=%title%" -T "ALBUM=%albumtitle%" -T "DATE=%year%" -T "TRACKNUMBER=%tracknr%" -T "GENRE=%genre%" -T "COMMENT=%comment%" -T "BAND=%albuminterpret%" -T "COMPOSER=%composer%" %haslyrics%--tag-from-file=LYRICS="%lyricsfile%"%haslyrics% -T "DISCNUMBER=%cdnumber%" -T "TOTALDISCS=%totalcds%" -T "TOTALTRACKS=%numtracks%" %hascover%--picture="%coverfile%"%hascover% %source% -o %dest%


TOC of the extracted CD

Track | Start | Length | Start sector | End sector
---------------------------------------------------------
1 | 0:00.00 | 4:16.03 | 0 | 19202
2 | 4:16.03 | 4:58.05 | 19203 | 41557
3 | 9:14.08 | 5:18.08 | 41558 | 65415
4 | 14:32.16 | 4:01.68 | 65416 | 83558
5 | 18:34.09 | 6:19.09 | 83559 | 111992
6 | 24:53.18 | 4:58.07 | 111993 | 134349
7 | 29:51.25 | 4:33.46 | 134350 | 154870
8 | 34:24.71 | 4:41.62 | 154871 | 176007
9 | 39:06.58 | 5:39.03 | 176008 | 201435
10 | 44:45.61 | 6:08.69 | 201436 | 229104
11 | 50:54.55 | 3:15.20 | 229105 | 243749


Range status and errors

Selected range

Filename C:\mm\Chris Rea\2005 - Blue Guitars [9783937406329]\CD01 - Album One. Beginnings\Chris Rea - CD01. Beginnings.wav

Peak level 99.9 %
Extraction speed 4.4 X
Range quality 100.0 %
Test CRC 20D8FAA3
Copy CRC 20D8FAA3
Copy OK

No errors occurred


AccurateRip summary

Track 1 accurately ripped (confidence 6) [7A7985A6] (AR v2)
Track 2 accurately ripped (confidence 6) [2345046A] (AR v2)
Track 3 accurately ripped (confidence 6) [C158E647] (AR v2)
Track 4 accurately ripped (confidence 6) [EFE66FBF] (AR v2)
Track 5 accurately ripped (confidence 6) [25449955] (AR v2)
Track 6 accurately ripped (confidence 6) [19C620D4] (AR v2)
Track 7 accurately ripped (confidence 6) [9817B059] (AR v2)
Track 8 accurately ripped (confidence 6) [EAE96B3D] (AR v2)
Track 9 accurately ripped (confidence 6) [A93A2E35] (AR v2)
Track 10 accurately ripped (confidence 6) [A309C72C] (AR v2)
Track 11 accurately ripped (confidence 3) [8D80DEC8] (AR v2)

All tracks accurately ripped

End of status report
[свернуть]

Файл CUE

REM GENRE Blues
REM DATE 2005
REM DISCID A80CB20B
REM COMMENT "ExactAudioCopy v1.1"
PERFORMER "Chris Rea"
TITLE "CD01. Beginnings"
FILE "Chris Rea - CD01. Beginnings.flac" WAVE
TRACK 01 AUDIO
TITLE "West Africa"
PERFORMER "Chris Rea"
FLAGS DCP
INDEX 01 00:00:00
TRACK 02 AUDIO
TITLE "Cry For Home"
PERFORMER "Chris Rea"
FLAGS DCP
INDEX 01 04:16:03
TRACK 03 AUDIO
TITLE "The King Who Sold His Own"
PERFORMER "Chris Rea"
FLAGS DCP
INDEX 01 09:14:08
TRACK 04 AUDIO
TITLE "White Man Coming"
PERFORMER "Chris Rea"
FLAGS DCP
INDEX 01 14:32:16
TRACK 05 AUDIO
TITLE "Where The Blues Come From"
PERFORMER "Chris Rea"
FLAGS DCP
INDEX 01 18:34:09
TRACK 06 AUDIO
TITLE "Lord Tell Me It Won't Be Long"
PERFORMER "Chris Rea"
FLAGS DCP
INDEX 01 24:53:18
TRACK 07 AUDIO
TITLE "Work Gang"
PERFORMER "Chris Rea"
FLAGS DCP
INDEX 01 29:51:25
TRACK 08 AUDIO
TITLE "Praise The Lord"
PERFORMER "Chris Rea"
FLAGS DCP
INDEX 01 34:24:71
TRACK 09 AUDIO
TITLE "Sweet Sunday"
PERFORMER "Chris Rea"
FLAGS DCP
INDEX 01 39:06:58
TRACK 10 AUDIO
TITLE "Sing Out The Devil"
PERFORMER "Chris Rea"
FLAGS DCP
INDEX 01 44:45:61
TRACK 11 AUDIO
TITLE "Boss Man Cut My Chains"
PERFORMER "Chris Rea"
FLAGS DCP
INDEX 01 50:54:55
[свернуть]

Лог проверки качества

AUDIOCHECKER v2.0 beta (build 457) - by Dester - [Ссылки могут видеть только зарегистрированные и активированные пользователи.]
[Only registered and activated users can see links.]
~~~~~~~~~~~~~~~~~~~~~~~~~~~~~~~~~~
-=== НЕ РЕДАКТИРУЙТЕ ЭТОТ ФАЙЛ! ===-

Путь: ...\CD01 - Album One. Beginnings

01 -=- Chris Rea - CD01. Beginnings.flac -=- CDDA (99%)

71914404
[свернуть]

Спектр частот

[свернуть]

Скачать Chris Rea - Album One. Beginnings

[Ссылки могут видеть только зарегистрированные и активированные пользователи.]
[Only registered and activated users can see links.]

password: sergych
[свернуть]
My opinion of release: 10/10
__________________
TAIFUN.Wings of Soul

Вверх
Пользователь сказал cпасибо:
swint68 (04.12.2018)
  #3
Старый 28.05.2016, 19:12
sergych
Координатор
Досье
 
Аватар для sergych
Релиз Re: Chris Rea - The Blue Guitars


2005 - Chris Rea - Album Two. Country Blues




Исполнитель/Artist: Chris Rea
Альбом/Album: Album Two. Country Blues
Год/Year: 2005
Жанр/Genre: Blues
Страна/Country: Германия
Рекорд-лейбл/Record label: Jazzee Blue
Номер в каталоге/Catalogue #: ST0004 CD2
Формат/Format: Free Lossless Audio Codec (*.flac)
Качество/Quality: Lossless
Тип рипа/RIP Type: image+.cue
Продолжительность/Length: 01:04:54
Источник/Source: Собственный рип
Размер/Size: 318.3 MB

Сканы в комплекте

Треклист

01. Walkin' Country Blues [0:03:41.59]
02. Man Gone Missing [0:04:40.55]
03. Can't Stay Blues [0:04:58.37]
04. KKK Blues [0:04:56.00]
05. Too Much Drinkin' [0:04:52.50]
06. Catwalk Woman [0:04:32.22]
07. If You've Got A Friend In Jesus [0:04:24.52]
08. Head Out On The Highway [0:04:31.34]
09. Wild Pony [0:04:10.01]
10. Steam Train Blues [0:03:50.52]
11. Going Up To Memphis [0:04:20.20]
12. Somewhere Between Highway 61 And 49 [0:06:06.74]
13. Ticket For Chicago [0:05:16.47]
14. Dance All Night Long [0:04:31.22]
[свернуть]

youtube.com

[свернуть]

EAC лог

Exact Audio Copy V1.1 from 23. June 2015

EAC extraction logfile from 10. May 2016, 21:42

Chris Rea / CD02. Country Blues

Used drive : ATAPI iHAS124 D Adapter: 0 ID: 2

Read mode : Secure
Utilize accurate stream : Yes
Defeat audio cache : Yes
Make use of C2 pointers : No

Read offset correction : 6
Overread into Lead-In and Lead-Out : No
Fill up missing offset samples with silence : Yes
Delete leading and trailing silent blocks : No
Null samples used in CRC calculations : Yes
Used interface : Installed external ASPI interface

Used output format : User Defined Encoder
Selected bitrate : 1024 kBit/s
Quality : High
Add ID3 tag : Yes
Command line compressor : C:\Program Files (x86)\Exact Audio Copy\Flac\flac.exe
Additional command line options : -6 -V -T "ARTIST=%artist%" -T "TITLE=%title%" -T "ALBUM=%albumtitle%" -T "DATE=%year%" -T "TRACKNUMBER=%tracknr%" -T "GENRE=%genre%" -T "COMMENT=%comment%" -T "BAND=%albuminterpret%" -T "COMPOSER=%composer%" %haslyrics%--tag-from-file=LYRICS="%lyricsfile%"%haslyrics% -T "DISCNUMBER=%cdnumber%" -T "TOTALDISCS=%totalcds%" -T "TOTALTRACKS=%numtracks%" %hascover%--picture="%coverfile%"%hascover% %source% -o %dest%


TOC of the extracted CD

Track | Start | Length | Start sector | End sector
---------------------------------------------------------
1 | 0:00.00 | 3:41.59 | 0 | 16633
2 | 3:41.59 | 4:40.55 | 16634 | 37688
3 | 8:22.39 | 4:58.37 | 37689 | 60075
4 | 13:21.01 | 4:56.00 | 60076 | 82275
5 | 18:17.01 | 4:52.50 | 82276 | 104225
6 | 23:09.51 | 4:32.22 | 104226 | 124647
7 | 27:41.73 | 4:24.52 | 124648 | 144499
8 | 32:06.50 | 4:31.34 | 144500 | 164858
9 | 36:38.09 | 4:10.01 | 164859 | 183609
10 | 40:48.10 | 3:50.52 | 183610 | 200911
11 | 44:38.62 | 4:20.20 | 200912 | 220431
12 | 48:59.07 | 6:06.74 | 220432 | 247955
13 | 55:06.06 | 5:16.47 | 247956 | 271702
14 | 60:22.53 | 4:31.22 | 271703 | 292049


Range status and errors

Selected range

Filename C:\mm\Chris Rea\2005 - Blue Guitars [9783937406329]\CD02 - Album Two. Country Blues\Chris Rea - CD02. Country Blues.wav

Peak level 99.9 %
Extraction speed 7.7 X
Range quality 99.9 %
Test CRC 8EA98BBC
Copy CRC 8EA98BBC
Copy OK

No errors occurred


AccurateRip summary

Track 1 accurately ripped (confidence 5) [698D5E7E] (AR v2)
Track 2 accurately ripped (confidence 5) [C2287F31] (AR v2)
Track 3 accurately ripped (confidence 5) [391A172E] (AR v2)
Track 4 accurately ripped (confidence 5) [D0CC69A1] (AR v2)
Track 5 accurately ripped (confidence 5) [C7178C6E] (AR v2)
Track 6 accurately ripped (confidence 5) [5E4959BA] (AR v2)
Track 7 accurately ripped (confidence 5) [44ADF87B] (AR v2)
Track 8 accurately ripped (confidence 5) [72567661] (AR v2)
Track 9 accurately ripped (confidence 5) [BB6D465C] (AR v2)
Track 10 accurately ripped (confidence 5) [DB7C5B5F] (AR v2)
Track 11 accurately ripped (confidence 5) [B0E0DB8C] (AR v2)
Track 12 accurately ripped (confidence 5) [EBD9C6DA] (AR v2)
Track 13 accurately ripped (confidence 5) [1D47935C] (AR v2)
Track 14 accurately ripped (confidence 3) [FD7F79CD] (AR v2)

All tracks accurately ripped

End of status report
[свернуть]

Файл CUE

REM GENRE Blues
REM DATE 2005
REM DISCID AE0F360E
REM COMMENT "ExactAudioCopy v1.1"
PERFORMER "Chris Rea"
TITLE "CD02. Country Blues"
FILE "Chris Rea - CD02. Country Blues.flac" WAVE
TRACK 01 AUDIO
TITLE "Walkin' Country Blues"
PERFORMER "Chris Rea"
FLAGS DCP
INDEX 01 00:00:00
TRACK 02 AUDIO
TITLE "Man Gone Missing"
PERFORMER "Chris Rea"
FLAGS DCP
INDEX 01 03:41:59
TRACK 03 AUDIO
TITLE "Can't Stay Blues"
PERFORMER "Chris Rea"
FLAGS DCP
INDEX 01 08:22:39
TRACK 04 AUDIO
TITLE "KKK Blues"
PERFORMER "Chris Rea"
FLAGS DCP
INDEX 01 13:21:01
TRACK 05 AUDIO
TITLE "Too Much Drinkin'"
PERFORMER "Chris Rea"
FLAGS DCP
INDEX 01 18:17:01
TRACK 06 AUDIO
TITLE "Catwalk Woman"
PERFORMER "Chris Rea"
FLAGS DCP
INDEX 01 23:09:51
TRACK 07 AUDIO
TITLE "If You've Got A Friend In Jesus"
PERFORMER "Chris Rea"
FLAGS DCP
INDEX 01 27:41:73
TRACK 08 AUDIO
TITLE "Head Out On The Highway"
PERFORMER "Chris Rea"
FLAGS DCP
INDEX 01 32:06:50
TRACK 09 AUDIO
TITLE "Wild Pony"
PERFORMER "Chris Rea"
FLAGS DCP
INDEX 01 36:38:09
TRACK 10 AUDIO
TITLE "Steam Train Blues"
PERFORMER "Chris Rea"
FLAGS DCP
INDEX 01 40:48:10
TRACK 11 AUDIO
TITLE "Going Up To Memphis"
PERFORMER "Chris Rea"
FLAGS DCP
INDEX 01 44:38:62
TRACK 12 AUDIO
TITLE "Somewhere Between Highway 61 And 49"
PERFORMER "Chris Rea"
FLAGS DCP
INDEX 01 48:59:07
TRACK 13 AUDIO
TITLE "Ticket For Chicago"
PERFORMER "Chris Rea"
FLAGS DCP
INDEX 01 55:06:06
TRACK 14 AUDIO
TITLE "Dance All Night Long"
PERFORMER "Chris Rea"
FLAGS DCP
INDEX 01 60:22:53
[свернуть]

Лог проверки качества

AUDIOCHECKER v2.0 beta (build 457) - by Dester - [Ссылки могут видеть только зарегистрированные и активированные пользователи.]
[Only registered and activated users can see links.]
~~~~~~~~~~~~~~~~~~~~~~~~~~~~~~~~~~
-=== НЕ РЕДАКТИРУЙТЕ ЭТОТ ФАЙЛ! ===-

Путь: ...\CD02 - Album Two. Country Blues

01 -=- Chris Rea - CD02. Country Blues.flac -=- CDDA (100%)

258331348
[свернуть]

Спектр частот

[свернуть]

Скачать Chris Rea - Album Two. Country Blues

[Ссылки могут видеть только зарегистрированные и активированные пользователи.]
[Only registered and activated users can see links.]

password: sergych
[свернуть]
My opinion of release: 10/10
__________________
TAIFUN.Wings of Soul

Вверх
Пользователь сказал cпасибо:
swint68 (04.12.2018)
  #4
Старый 28.05.2016, 22:44
sergych
Координатор
Досье
 
Аватар для sergych
Релиз Re: Chris Rea - The Blue Guitars


2005 - Chris Rea - Album Three. Louisiana & New Orleans




Исполнитель/Artist: Chris Rea
Альбом/Album: Album Three. Louisiana & New Orleans
Год/Year: 2005
Жанр/Genre: Blues
Страна/Country: Германия
Рекорд-лейбл/Record label: Jazzee Blue
Номер в каталоге/Catalogue #: ST0004 CD3
Формат/Format: Free Lossless Audio Codec (*.flac)
Качество/Quality: Lossless
Тип рипа/RIP Type: image+.cue
Продолжительность/Length: 00:48:10
Источник/Source: Собственный рип
Размер/Size: 292 MB

Сканы в комплекте

Треклист

01. Two Days Missing Down The Viper Room [0:03:00.33]
02. Who Cares If I Do [0:04:35.43]
03. What Made Me Love You [0:03:22.60]
04. You Got Dixie [0:04:41.59]
05. One Night With You [0:05:29.43]
06. Talking 'bout New Orleans [0:05:27.54]
07. Le Fleur De La Vie [0:03:15.61]
08. Catfish Girl [0:03:51.34]
09. Only A Fool Plays By The Rules [0:04:01.57]
10. Baby Come Home [0:03:30.41]
11. Dance Avec Moi [0:03:20.60]
12. L'ete Eternal [0:03:31.55]
[свернуть]

youtube.com

[свернуть]

EAC лог

Exact Audio Copy V1.1 from 23. June 2015

EAC extraction logfile from 10. May 2016, 22:25

Chris Rea / CD03. Louisiana And New Orleans

Used drive : ATAPI iHAS124 D Adapter: 0 ID: 2

Read mode : Secure
Utilize accurate stream : Yes
Defeat audio cache : Yes
Make use of C2 pointers : No

Read offset correction : 6
Overread into Lead-In and Lead-Out : No
Fill up missing offset samples with silence : Yes
Delete leading and trailing silent blocks : No
Null samples used in CRC calculations : Yes
Used interface : Installed external ASPI interface

Used output format : User Defined Encoder
Selected bitrate : 1024 kBit/s
Quality : High
Add ID3 tag : Yes
Command line compressor : C:\Program Files (x86)\Exact Audio Copy\Flac\flac.exe
Additional command line options : -6 -V -T "ARTIST=%artist%" -T "TITLE=%title%" -T "ALBUM=%albumtitle%" -T "DATE=%year%" -T "TRACKNUMBER=%tracknr%" -T "GENRE=%genre%" -T "COMMENT=%comment%" -T "BAND=%albuminterpret%" -T "COMPOSER=%composer%" %haslyrics%--tag-from-file=LYRICS="%lyricsfile%"%haslyrics% -T "DISCNUMBER=%cdnumber%" -T "TOTALDISCS=%totalcds%" -T "TOTALTRACKS=%numtracks%" %hascover%--picture="%coverfile%"%hascover% %source% -o %dest%


TOC of the extracted CD

Track | Start | Length | Start sector | End sector
---------------------------------------------------------
1 | 0:00.00 | 3:00.33 | 0 | 13532
2 | 3:00.33 | 4:35.43 | 13533 | 34200
3 | 7:36.01 | 3:22.60 | 34201 | 49410
4 | 10:58.61 | 4:41.59 | 49411 | 70544
5 | 15:40.45 | 5:29.43 | 70545 | 95262
6 | 21:10.13 | 5:27.54 | 95263 | 119841
7 | 26:37.67 | 3:15.61 | 119842 | 134527
8 | 29:53.53 | 3:51.34 | 134528 | 151886
9 | 33:45.12 | 4:01.57 | 151887 | 170018
10 | 37:46.69 | 3:30.41 | 170019 | 185809
11 | 41:17.35 | 3:20.60 | 185810 | 200869
12 | 44:38.20 | 3:31.55 | 200870 | 216749


Range status and errors

Selected range

Filename C:\mm\Chris Rea\2005 - Blue Guitars [9783937406329]\CD03 - Album Three. Louisiana & New Orleans\Chris Rea - CD03. Louisiana And New Orleans.wav

Peak level 100.0 %
Extraction speed 3.1 X
Range quality 100.0 %
Test CRC 7924D2AB
Copy CRC 7924D2AB
Copy OK

No errors occurred


AccurateRip summary

Track 1 accurately ripped (confidence 6) [3087244E] (AR v2)
Track 2 accurately ripped (confidence 6) [16AE604B] (AR v2)
Track 3 accurately ripped (confidence 6) [3DB2D107] (AR v2)
Track 4 accurately ripped (confidence 6) [C8E0E13E] (AR v2)
Track 5 accurately ripped (confidence 6) [890C240E] (AR v2)
Track 6 accurately ripped (confidence 6) [2362EED0] (AR v2)
Track 7 accurately ripped (confidence 6) [7FDF2B68] (AR v2)
Track 8 accurately ripped (confidence 6) [7EA2FA3F] (AR v2)
Track 9 accurately ripped (confidence 6) [A3B13B7B] (AR v2)
Track 10 accurately ripped (confidence 6) [2E5983C7] (AR v2)
Track 11 accurately ripped (confidence 6) [DBD7BC46] (AR v2)
Track 12 accurately ripped (confidence 6) [7764F3C4] (AR v2)

All tracks accurately ripped

End of status report
[свернуть]

Файл CUE

REM GENRE Blues
REM DATE 2005
REM DISCID B60B4A0C
REM COMMENT "ExactAudioCopy v1.1"
PERFORMER "Chris Rea"
TITLE "CD03. Louisiana And New Orleans"
FILE "Chris Rea - CD03. Louisiana And New Orleans.flac" WAVE
TRACK 01 AUDIO
TITLE "Two Days Missing Down The Viper Room"
PERFORMER "Chris Rea"
FLAGS DCP
INDEX 01 00:00:00
TRACK 02 AUDIO
TITLE "Who Cares If I Do"
PERFORMER "Chris Rea"
FLAGS DCP
INDEX 01 03:00:33
TRACK 03 AUDIO
TITLE "What Made Me Love You"
PERFORMER "Chris Rea"
FLAGS DCP
INDEX 01 07:36:01
TRACK 04 AUDIO
TITLE "You Got Dixie"
PERFORMER "Chris Rea"
FLAGS DCP
INDEX 01 10:58:61
TRACK 05 AUDIO
TITLE "One Night With You"
PERFORMER "Chris Rea"
FLAGS DCP
INDEX 01 15:40:45
TRACK 06 AUDIO
TITLE "Talking 'bout New Orleans"
PERFORMER "Chris Rea"
FLAGS DCP
INDEX 01 21:10:13
TRACK 07 AUDIO
TITLE "Le Fleur De La Vie"
PERFORMER "Chris Rea"
FLAGS DCP
INDEX 01 26:37:67
TRACK 08 AUDIO
TITLE "Catfish Girl"
PERFORMER "Chris Rea"
FLAGS DCP
INDEX 01 29:53:53
TRACK 09 AUDIO
TITLE "Only A Fool Plays By The Rules"
PERFORMER "Chris Rea"
FLAGS DCP
INDEX 01 33:45:12
TRACK 10 AUDIO
TITLE "Baby Come Home"
PERFORMER "Chris Rea"
FLAGS DCP
INDEX 01 37:46:69
TRACK 11 AUDIO
TITLE "Dance Avec Moi"
PERFORMER "Chris Rea"
FLAGS DCP
INDEX 01 41:17:35
TRACK 12 AUDIO
TITLE "L'ete Eternal"
PERFORMER "Chris Rea"
FLAGS DCP
INDEX 01 44:38:20
[свернуть]

Лог проверки качества

AUDIOCHECKER v2.0 beta (build 457) - by Dester - [Ссылки могут видеть только зарегистрированные и активированные пользователи.]
[Only registered and activated users can see links.]
~~~~~~~~~~~~~~~~~~~~~~~~~~~~~~~~~~
-=== НЕ РЕДАКТИРУЙТЕ ЭТОТ ФАЙЛ! ===-

Путь: ...\CD03 - Album Three. Louisiana & New Orleans

01 -=- Chris Rea - CD03. Louisiana And New Orleans.flac -=- CDDA (100%)

148421396
[свернуть]

Спектр частот

[свернуть]

Скачать Chris Rea - Album Three. Louisiana & New Orleans

[Ссылки могут видеть только зарегистрированные и активированные пользователи.]
[Only registered and activated users can see links.]

password: sergych
[свернуть]
My opinion of release: 10/10
__________________
TAIFUN.Wings of Soul

Вверх
Пользователь сказал cпасибо:
swint68 (04.12.2018)
  #5
Старый 28.05.2016, 22:55
sergych
Координатор
Досье
 
Аватар для sergych
Релиз Re: Chris Rea - The Blue Guitars


2005 - Chris Rea - Album Four. Electric Memphis Blues




Исполнитель/Artist: Chris Rea
Альбом/Album: Album Four. Electric Memphis Blues
Год/Year: 2005
Жанр/Genre: Blues
Страна/Country: Германия
Рекорд-лейбл/Record label: Jazzee Blue
Номер в каталоге/Catalogue #: ST0004 CD4
Формат/Format: Free Lossless Audio Codec (*.flac)
Качество/Quality: Lossless
Тип рипа/RIP Type: image+.cue
Продолжительность/Length: 00:47:03
Источник/Source: Собственный рип
Размер/Size: 301.8 MB

Сканы в комплекте

Треклист

01. Electric Guitar [0:04:44.55]
02. Electric Memphis Blues [0:04:17.32]
03. All Night Long [0:04:14.42]
04. Born Bad [0:03:49.05]
05. Let's Start Again [0:03:54.69]
06. What I'm Looking For [0:04:28.29]
07. Rules Of Love [0:03:13.48]
08. What You Done To Me [0:03:30.69]
09. Hobo Love Blues [0:03:39.52]
10. Pass Me By [0:03:08.51]
11. The Soul Of My Father's Shadow [0:03:54.28]
12. My Blue World Says Hello [0:04:06.45]
[свернуть]

youtube.com

[свернуть]

EAC лог

Exact Audio Copy V1.1 from 23. June 2015

EAC extraction logfile from 10. May 2016, 23:13

Chris Rea / CD04. Electric Memphis Blues

Used drive : ATAPI iHAS124 D Adapter: 0 ID: 2

Read mode : Secure
Utilize accurate stream : Yes
Defeat audio cache : Yes
Make use of C2 pointers : No

Read offset correction : 6
Overread into Lead-In and Lead-Out : No
Fill up missing offset samples with silence : Yes
Delete leading and trailing silent blocks : No
Null samples used in CRC calculations : Yes
Used interface : Installed external ASPI interface

Used output format : User Defined Encoder
Selected bitrate : 1024 kBit/s
Quality : High
Add ID3 tag : Yes
Command line compressor : C:\Program Files (x86)\Exact Audio Copy\Flac\flac.exe
Additional command line options : -6 -V -T "ARTIST=%artist%" -T "TITLE=%title%" -T "ALBUM=%albumtitle%" -T "DATE=%year%" -T "TRACKNUMBER=%tracknr%" -T "GENRE=%genre%" -T "COMMENT=%comment%" -T "BAND=%albuminterpret%" -T "COMPOSER=%composer%" %haslyrics%--tag-from-file=LYRICS="%lyricsfile%"%haslyrics% -T "DISCNUMBER=%cdnumber%" -T "TOTALDISCS=%totalcds%" -T "TOTALTRACKS=%numtracks%" %hascover%--picture="%coverfile%"%hascover% %source% -o %dest%


TOC of the extracted CD

Track | Start | Length | Start sector | End sector
---------------------------------------------------------
1 | 0:00.00 | 4:44.55 | 0 | 21354
2 | 4:44.55 | 4:17.32 | 21355 | 40661
3 | 9:02.12 | 4:14.42 | 40662 | 59753
4 | 13:16.54 | 3:49.05 | 59754 | 76933
5 | 17:05.59 | 3:54.69 | 76934 | 94552
6 | 21:00.53 | 4:28.29 | 94553 | 114681
7 | 25:29.07 | 3:13.48 | 114682 | 129204
8 | 28:42.55 | 3:30.69 | 129205 | 145023
9 | 32:13.49 | 3:39.52 | 145024 | 161500
10 | 35:53.26 | 3:08.51 | 161501 | 175651
11 | 39:02.02 | 3:54.28 | 175652 | 193229
12 | 42:56.30 | 4:06.45 | 193230 | 211724


Range status and errors

Selected range

Filename C:\mm\Chris Rea\2005 - Blue Guitars [9783937406329]\CD04 - Album Four. Electric Memphis Blues\Chris Rea - CD04. Electric Memphis Blues.wav

Peak level 99.9 %
Extraction speed 8.3 X
Range quality 99.9 %
Test CRC B126F242
Copy CRC B126F242
Copy OK

No errors occurred


AccurateRip summary

Track 1 accurately ripped (confidence 6) [169DE17D] (AR v2)
Track 2 accurately ripped (confidence 6) [24A65698] (AR v2)
Track 3 accurately ripped (confidence 6) [3EE9E0FB] (AR v2)
Track 4 accurately ripped (confidence 6) [B7E4FC85] (AR v2)
Track 5 accurately ripped (confidence 6) [E57AD69B] (AR v2)
Track 6 accurately ripped (confidence 6) [02264F9C] (AR v2)
Track 7 accurately ripped (confidence 6) [0AEADDFE] (AR v2)
Track 8 accurately ripped (confidence 6) [22A2AAA6] (AR v2)
Track 9 accurately ripped (confidence 6) [CAC5BFDC] (AR v2)
Track 10 accurately ripped (confidence 6) [44893B7E] (AR v2)
Track 11 accurately ripped (confidence 6) [878BF19C] (AR v2)
Track 12 accurately ripped (confidence 6) [117CEF26] (AR v2)

All tracks accurately ripped

End of status report
[свернуть]

Файл CUE

REM GENRE Blues
REM DATE 2005
REM DISCID A60B070C
REM COMMENT "ExactAudioCopy v1.1"
PERFORMER "Chris Rea"
TITLE "CD04. Electric Memphis Blues"
FILE "Chris Rea - CD04. Electric Memphis Blues.flac" WAVE
TRACK 01 AUDIO
TITLE "Electric Guitar"
PERFORMER "Chris Rea"
FLAGS DCP
INDEX 01 00:00:00
TRACK 02 AUDIO
TITLE "Electric Memphis Blues"
PERFORMER "Chris Rea"
FLAGS DCP
INDEX 01 04:44:55
TRACK 03 AUDIO
TITLE "All Night Long"
PERFORMER "Chris Rea"
FLAGS DCP
INDEX 01 09:02:12
TRACK 04 AUDIO
TITLE "Born Bad"
PERFORMER "Chris Rea"
FLAGS DCP
INDEX 01 13:16:54
TRACK 05 AUDIO
TITLE "Let's Start Again"
PERFORMER "Chris Rea"
FLAGS DCP
INDEX 01 17:05:59
TRACK 06 AUDIO
TITLE "What I'm Looking For"
PERFORMER "Chris Rea"
FLAGS DCP
INDEX 01 21:00:53
TRACK 07 AUDIO
TITLE "Rules Of Love"
PERFORMER "Chris Rea"
FLAGS DCP
INDEX 01 25:29:07
TRACK 08 AUDIO
TITLE "What You Done To Me"
PERFORMER "Chris Rea"
FLAGS DCP
INDEX 01 28:42:55
TRACK 09 AUDIO
TITLE "Hobo Love Blues"
PERFORMER "Chris Rea"
FLAGS DCP
INDEX 01 32:13:49
TRACK 10 AUDIO
TITLE "Pass Me By"
PERFORMER "Chris Rea"
FLAGS DCP
INDEX 01 35:53:26
TRACK 11 AUDIO
TITLE "The Soul Of My Father's Shadow"
PERFORMER "Chris Rea"
FLAGS DCP
INDEX 01 39:02:02
TRACK 12 AUDIO
TITLE "My Blue World Says Hello"
PERFORMER "Chris Rea"
FLAGS DCP
INDEX 01 42:56:30
[свернуть]

Лог проверки качества

AUDIOCHECKER v2.0 beta (build 457) - by Dester - [Ссылки могут видеть только зарегистрированные и активированные пользователи.]
[Only registered and activated users can see links.]
~~~~~~~~~~~~~~~~~~~~~~~~~~~~~~~~~~
-=== НЕ РЕДАКТИРУЙТЕ ЭТОТ ФАЙЛ! ===-

Путь: ...\CD04 - Album Four. Electric Memphis Blues

01 -=- Chris Rea - CD04. Electric Memphis Blues.flac -=- CDDA (100%)

81867604
[свернуть]

Спектр частот

[свернуть]

Скачать Chris Rea - Album Four. Electric Memphis Blues

[Ссылки могут видеть только зарегистрированные и активированные пользователи.]
[Only registered and activated users can see links.]

password: sergych
[свернуть]
My opinion of release: 10/10
__________________
TAIFUN.Wings of Soul

Вверх
Пользователь сказал cпасибо:
swint68 (04.12.2018)
  #6
Старый 29.05.2016, 12:17
sergych
Координатор
Досье
 
Аватар для sergych
Релиз Re: Chris Rea - The Blue Guitars


2005 - Chris Rea - Album Five. Texas Blues




Исполнитель/Artist: Chris Rea
Альбом/Album: Album Five. Texas Blues
Год/Year: 2005
Жанр/Genre: Blues
Страна/Country: Германия
Рекорд-лейбл/Record label: Jazzee Blue
Номер в каталоге/Catalogue #: ST0004 CD5
Формат/Format: Free Lossless Audio Codec (*.flac)
Качество/Quality: Lossless
Тип рипа/RIP Type: image+.cue
Продолжительность/Length: 00:59:04
Источник/Source: Собственный рип
Размер/Size: 381.9 MB

Сканы в комплекте

Треклист

01. Lone Rider [0:04:46.53]
02. Texas Blue [0:05:11.74]
03. No Wheels Blues [0:05:05.26]
04. Lone Star Boogie [0:05:18.54]
05. Blind Willie [0:06:49.17]
06. The American Way [0:04:07.44]
07. Angellina [0:04:48.59]
08. Truck Stop [0:04:49.46]
09. Weekend Down Mexico [0:04:20.26]
10. Texas Line Boogie [0:04:41.69]
11. Too Big City [0:05:04.04]
12. Houston Angel [0:03:59.53]
[свернуть]

youtube.com

[свернуть]

EAC лог

Exact Audio Copy V1.1 from 23. June 2015

EAC extraction logfile from 11. May 2016, 0:54

Chris Rea / CD05. Texas Blues

Used drive : ATAPI iHAS124 D Adapter: 0 ID: 2

Read mode : Secure
Utilize accurate stream : Yes
Defeat audio cache : Yes
Make use of C2 pointers : No

Read offset correction : 6
Overread into Lead-In and Lead-Out : No
Fill up missing offset samples with silence : Yes
Delete leading and trailing silent blocks : No
Null samples used in CRC calculations : Yes
Used interface : Installed external ASPI interface

Used output format : User Defined Encoder
Selected bitrate : 1024 kBit/s
Quality : High
Add ID3 tag : Yes
Command line compressor : C:\Program Files (x86)\Exact Audio Copy\Flac\flac.exe
Additional command line options : -6 -V -T "ARTIST=%artist%" -T "TITLE=%title%" -T "ALBUM=%albumtitle%" -T "DATE=%year%" -T "TRACKNUMBER=%tracknr%" -T "GENRE=%genre%" -T "COMMENT=%comment%" -T "BAND=%albuminterpret%" -T "COMPOSER=%composer%" %haslyrics%--tag-from-file=LYRICS="%lyricsfile%"%haslyrics% -T "DISCNUMBER=%cdnumber%" -T "TOTALDISCS=%totalcds%" -T "TOTALTRACKS=%numtracks%" %hascover%--picture="%coverfile%"%hascover% %source% -o %dest%


TOC of the extracted CD

Track | Start | Length | Start sector | End sector
---------------------------------------------------------
1 | 0:00.00 | 4:46.53 | 0 | 21502
2 | 4:46.53 | 5:11.74 | 21503 | 44901
3 | 9:58.52 | 5:05.26 | 44902 | 67802
4 | 15:04.03 | 5:18.54 | 67803 | 91706
5 | 20:22.57 | 6:49.17 | 91707 | 122398
6 | 27:11.74 | 4:07.44 | 122399 | 140967
7 | 31:19.43 | 4:48.59 | 140968 | 162626
8 | 36:08.27 | 4:49.46 | 162627 | 184347
9 | 40:57.73 | 4:20.26 | 184348 | 203873
10 | 45:18.24 | 4:41.69 | 203874 | 225017
11 | 50:00.18 | 5:04.04 | 225018 | 247821
12 | 55:04.22 | 3:59.53 | 247822 | 265799


Range status and errors

Selected range

Filename C:\mm\Chris Rea\2005 - Blue Guitars [9783937406329]\CD05 - Album Five. Texas Blues\Chris Rea - CD05. Texas Blues.wav

Suspicious position 0:56:43

Peak level 99.9 %
Extraction speed 4.3 X
Range quality 99.8 %
Test CRC 414DAD4F
Copy CRC 414DAD4F
Copy finished

No errors occurred


AccurateRip summary

Track 1 accurately ripped (confidence 6) [3CFC5C16] (AR v2)
Track 2 accurately ripped (confidence 6) [FA9A85F7] (AR v2)
Track 3 accurately ripped (confidence 6) [265A90EF] (AR v2)
Track 4 accurately ripped (confidence 6) [70CBBEA0] (AR v2)
Track 5 accurately ripped (confidence 6) [4A20DD28] (AR v2)
Track 6 accurately ripped (confidence 6) [745740ED] (AR v2)
Track 7 accurately ripped (confidence 6) [1BFF5E18] (AR v2)
Track 8 accurately ripped (confidence 6) [F338AA5F] (AR v2)
Track 9 accurately ripped (confidence 6) [803AEC70] (AR v2)
Track 10 accurately ripped (confidence 6) [C765F533] (AR v2)
Track 11 accurately ripped (confidence 6) [9F7D2C95] (AR v2)
Track 12 accurately ripped (confidence 6) [21F0C9D9] (AR v2)

All tracks accurately ripped

End of status report
[свернуть]

Файл CUE

REM GENRE Blues
REM DATE 2005
REM DISCID 8B0DD80C
REM COMMENT "ExactAudioCopy v1.1"
PERFORMER "Chris Rea"
TITLE "CD05. Texas Blues"
FILE "Chris Rea - CD05. Texas Blues.flac" WAVE
TRACK 01 AUDIO
TITLE "Lone Rider"
PERFORMER "Chris Rea"
FLAGS DCP
INDEX 01 00:00:00
TRACK 02 AUDIO
TITLE "Texas Blue"
PERFORMER "Chris Rea"
FLAGS DCP
INDEX 01 04:46:53
TRACK 03 AUDIO
TITLE "No Wheels Blues"
PERFORMER "Chris Rea"
FLAGS DCP
INDEX 01 09:58:52
TRACK 04 AUDIO
TITLE "Lone Star Boogie"
PERFORMER "Chris Rea"
FLAGS DCP
INDEX 01 15:04:03
TRACK 05 AUDIO
TITLE "Blind Willie"
PERFORMER "Chris Rea"
FLAGS DCP
INDEX 01 20:22:57
TRACK 06 AUDIO
TITLE "The American Way"
PERFORMER "Chris Rea"
FLAGS DCP
INDEX 01 27:11:74
TRACK 07 AUDIO
TITLE "Angellina"
PERFORMER "Chris Rea"
FLAGS DCP
INDEX 01 31:19:43
TRACK 08 AUDIO
TITLE "Truck Stop"
PERFORMER "Chris Rea"
FLAGS DCP
INDEX 01 36:08:27
TRACK 09 AUDIO
TITLE "Weekend Down Mexico"
PERFORMER "Chris Rea"
FLAGS DCP
INDEX 01 40:57:73
TRACK 10 AUDIO
TITLE "Texas Line Boogie"
PERFORMER "Chris Rea"
FLAGS DCP
INDEX 01 45:18:24
TRACK 11 AUDIO
TITLE "Too Big City"
PERFORMER "Chris Rea"
FLAGS DCP
INDEX 01 50:00:18
TRACK 12 AUDIO
TITLE "Houston Angel"
PERFORMER "Chris Rea"
FLAGS DCP
INDEX 01 55:04:22
[свернуть]

Лог проверки качества

AUDIOCHECKER v2.0 beta (build 457) - by Dester - [Ссылки могут видеть только зарегистрированные и активированные пользователи.]
[Only registered and activated users can see links.]
~~~~~~~~~~~~~~~~~~~~~~~~~~~~~~~~~~
-=== НЕ РЕДАКТИРУЙТЕ ЭТОТ ФАЙЛ! ===-

Путь: ...\CD05 - Album Five. Texas Blues

01 -=- Chris Rea - CD05. Texas Blues.flac -=- CDDA (100%)

57201348
[свернуть]

Спектр частот

[свернуть]

Скачать Chris Rea - Album Five. Texas Blues

[Ссылки могут видеть только зарегистрированные и активированные пользователи.]
[Only registered and activated users can see links.]

password: sergych
[свернуть]
My opinion of release: 10/10
__________________
TAIFUN.Wings of Soul

Вверх
Пользователь сказал cпасибо:
swint68 (04.12.2018)
  #7
Старый 29.05.2016, 13:55
sergych
Координатор
Досье
 
Аватар для sergych
Релиз Re: Chris Rea - The Blue Guitars


2005 - Chris Rea - Album Six. Chicago Blues




Исполнитель/Artist: Chris Rea
Альбом/Album: Album Six. Chicago Blues
Год/Year: 2005
Жанр/Genre: Blues
Страна/Country: Германия
Рекорд-лейбл/Record label: Jazzee Blue
Номер в каталоге/Catalogue #: ST0004 CD6
Формат/Format: Free Lossless Audio Codec (*.flac)
Качество/Quality: Lossless
Тип рипа/RIP Type: image+.cue
Продолжительность/Length: 00:55:22
Источник/Source: Собственный рип
Размер/Size: 359.7 MB

Сканы в комплекте

Треклист

01. I'm Moving Up [0:04:33.70]
02. Maxwell Street [0:04:39.67]
03. Bob Taylor [0:05:15.55]
04. She's A Whole Heap Of Trouble [0:02:31.69]
05. Jazzy Blue [0:03:27.21]
06. Hip-Sway [0:03:40.46]
07. That's The Way It Goes [0:03:33.63]
08. To Get Your Love [0:05:08.74]
09. Chicago Morning [0:04:57.62]
10. Catwalk Woman [0:03:36.69]
11. Since You've Been Gone [0:04:11.18]
12. All Night Long [0:05:27.52]
13. Here She Comes Now [0:04:16.20]
[свернуть]

youtube.com

[свернуть]

EAC лог

Exact Audio Copy V1.1 from 23. June 2015

EAC extraction logfile from 11. May 2016, 2:39

Chris Rea / CD06. Chicago Blues

Used drive : ATAPI iHAS124 D Adapter: 0 ID: 2

Read mode : Secure
Utilize accurate stream : Yes
Defeat audio cache : Yes
Make use of C2 pointers : No

Read offset correction : 6
Overread into Lead-In and Lead-Out : No
Fill up missing offset samples with silence : Yes
Delete leading and trailing silent blocks : No
Null samples used in CRC calculations : Yes
Used interface : Installed external ASPI interface

Used output format : User Defined Encoder
Selected bitrate : 1024 kBit/s
Quality : High
Add ID3 tag : Yes
Command line compressor : C:\Program Files (x86)\Exact Audio Copy\Flac\flac.exe
Additional command line options : -6 -V -T "ARTIST=%artist%" -T "TITLE=%title%" -T "ALBUM=%albumtitle%" -T "DATE=%year%" -T "TRACKNUMBER=%tracknr%" -T "GENRE=%genre%" -T "COMMENT=%comment%" -T "BAND=%albuminterpret%" -T "COMPOSER=%composer%" %haslyrics%--tag-from-file=LYRICS="%lyricsfile%"%haslyrics% -T "DISCNUMBER=%cdnumber%" -T "TOTALDISCS=%totalcds%" -T "TOTALTRACKS=%numtracks%" %hascover%--picture="%coverfile%"%hascover% %source% -o %dest%


TOC of the extracted CD

Track | Start | Length | Start sector | End sector
---------------------------------------------------------
1 | 0:00.00 | 4:33.70 | 0 | 20544
2 | 4:33.70 | 4:39.67 | 20545 | 41536
3 | 9:13.62 | 5:15.55 | 41537 | 65216
4 | 14:29.42 | 2:31.69 | 65217 | 76610
5 | 17:01.36 | 3:27.21 | 76611 | 92156
6 | 20:28.57 | 3:40.46 | 92157 | 108702
7 | 24:09.28 | 3:33.63 | 108703 | 124740
8 | 27:43.16 | 5:08.74 | 124741 | 147914
9 | 32:52.15 | 4:57.62 | 147915 | 170251
10 | 37:50.02 | 3:36.69 | 170252 | 186520
11 | 41:26.71 | 4:11.18 | 186521 | 205363
12 | 45:38.14 | 5:27.52 | 205364 | 229940
13 | 51:05.66 | 4:16.20 | 229941 | 249160


Range status and errors

Selected range

Filename C:\mm\Chris Rea\2005 - Blue Guitars [9783937406329]\CD06 - Album Six. Chicago Blues\Chris Rea - CD06. Chicago Blues.wav

Peak level 99.9 %
Extraction speed 3.2 X
Range quality 100.0 %
Test CRC 77E7A806
Copy CRC 77E7A806
Copy OK

No errors occurred


AccurateRip summary

Track 1 accurately ripped (confidence 6) [51B258E7] (AR v2)
Track 2 accurately ripped (confidence 6) [CA1840CF] (AR v2)
Track 3 accurately ripped (confidence 6) [37ACBD33] (AR v2)
Track 4 accurately ripped (confidence 6) [25E10F9F] (AR v2)
Track 5 accurately ripped (confidence 6) [03216464] (AR v2)
Track 6 accurately ripped (confidence 6) [F3BCE694] (AR v2)
Track 7 accurately ripped (confidence 6) [DFBA15AC] (AR v2)
Track 8 accurately ripped (confidence 6) [68B00638] (AR v2)
Track 9 accurately ripped (confidence 6) [4F3E1C12] (AR v2)
Track 10 accurately ripped (confidence 6) [28FEB191] (AR v2)
Track 11 accurately ripped (confidence 6) [488EF9B5] (AR v2)
Track 12 accurately ripped (confidence 6) [B064652F] (AR v2)
Track 13 accurately ripped (confidence 6) [5D252C62] (AR v2)

All tracks accurately ripped

End of status report
[свернуть]

Файл CUE

REM GENRE Blues
REM DATE 2005
REM DISCID AD0CFA0D
REM COMMENT "ExactAudioCopy v1.1"
PERFORMER "Chris Rea"
TITLE "CD06. Chicago Blues"
FILE "Chris Rea - CD06. Chicago Blues.flac" WAVE
TRACK 01 AUDIO
TITLE "I'm Moving Up"
PERFORMER "Chris Rea"
FLAGS DCP
INDEX 01 00:00:00
TRACK 02 AUDIO
TITLE "Maxwell Street"
PERFORMER "Chris Rea"
FLAGS DCP
INDEX 01 04:33:70
TRACK 03 AUDIO
TITLE "Bob Taylor"
PERFORMER "Chris Rea"
FLAGS DCP
INDEX 01 09:13:62
TRACK 04 AUDIO
TITLE "She's A Whole Heap Of Trouble"
PERFORMER "Chris Rea"
FLAGS DCP
INDEX 01 14:29:42
TRACK 05 AUDIO
TITLE "Jazzy Blue"
PERFORMER "Chris Rea"
FLAGS DCP
INDEX 01 17:01:36
TRACK 06 AUDIO
TITLE "Hip-Sway"
PERFORMER "Chris Rea"
FLAGS DCP
INDEX 01 20:28:57
TRACK 07 AUDIO
TITLE "That's The Way It Goes"
PERFORMER "Chris Rea"
FLAGS DCP
INDEX 01 24:09:28
TRACK 08 AUDIO
TITLE "To Get Your Love"
PERFORMER "Chris Rea"
FLAGS DCP
INDEX 01 27:43:16
TRACK 09 AUDIO
TITLE "Chicago Morning"
PERFORMER "Chris Rea"
FLAGS DCP
INDEX 01 32:52:15
TRACK 10 AUDIO
TITLE "Catwalk Woman"
PERFORMER "Chris Rea"
FLAGS DCP
INDEX 01 37:50:02
TRACK 11 AUDIO
TITLE "Since You've Been Gone"
PERFORMER "Chris Rea"
FLAGS DCP
INDEX 01 41:26:71
TRACK 12 AUDIO
TITLE "All Night Long"
PERFORMER "Chris Rea"
FLAGS DCP
INDEX 01 45:38:14
TRACK 13 AUDIO
TITLE "Here She Comes Now"
PERFORMER "Chris Rea"
FLAGS DCP
INDEX 01 51:05:66
[свернуть]

Лог проверки качества

AUDIOCHECKER v2.0 beta (build 457) - by Dester - [Ссылки могут видеть только зарегистрированные и активированные пользователи.]
[Only registered and activated users can see links.]
~~~~~~~~~~~~~~~~~~~~~~~~~~~~~~~~~~
-=== НЕ РЕДАКТИРУЙТЕ ЭТОТ ФАЙЛ! ===-

Путь: ...\CD06 - Album Six. Chicago Blues

01 -=- Chris Rea - CD06. Chicago Blues.flac -=- CDDA (100%)

251230916
[свернуть]

Спектр частот

[свернуть]

Скачать Chris Rea - Album Six. Chicago Blues

[Ссылки могут видеть только зарегистрированные и активированные пользователи.]
[Only registered and activated users can see links.]

password: sergych
[свернуть]
My opinion of release: 10/10
__________________
TAIFUN.Wings of Soul

Вверх
Пользователь сказал cпасибо:
swint68 (04.12.2018)
  #8
Старый 29.05.2016, 19:20
sergych
Координатор
Досье
 
Аватар для sergych
Релиз Re: Chris Rea - The Blue Guitars


2005 - Chris Rea - Album Seven. Blues Ballads




Исполнитель/Artist: Chris Rea
Альбом/Album: Album Seven. Blues Ballads
Год/Year: 2005
Жанр/Genre: Blues
Страна/Country: Германия
Рекорд-лейбл/Record label: Jazzee Blue
Номер в каталоге/Catalogue #: ST0004 CD7
Формат/Format: Free Lossless Audio Codec (*.flac)
Качество/Quality: Lossless
Тип рипа/RIP Type: image+.cue
Продолжительность/Length: 00:44:32
Источник/Source: Собственный рип
Размер/Size: 282.4 MB

Сканы в комплекте

Треклист

01. Last Call [0:03:33.06]
02. Maybe That's All I Need To Know [0:04:22.25]
03. Deep Winter Blues [0:05:00.60]
04. If I Ever Get Over You [0:04:58.27]
05. I Love The Rain [0:04:28.28]
06. My Soul Crying Out For You [0:03:28.63]
07. If That's What You Want [0:04:10.49]
08. There's No One Looking [0:05:23.54]
09. What Became Of You [0:04:47.56]
10. My Deep Blue Ways [0:04:18.07]
[свернуть]

youtube.com

[свернуть]

EAC лог

Exact Audio Copy V1.1 from 23. June 2015

EAC extraction logfile from 11. May 2016, 7:43

Chris Rea / CD07. Blues Ballads

Used drive : ATAPI iHAS124 D Adapter: 0 ID: 2

Read mode : Secure
Utilize accurate stream : Yes
Defeat audio cache : Yes
Make use of C2 pointers : No

Read offset correction : 6
Overread into Lead-In and Lead-Out : No
Fill up missing offset samples with silence : Yes
Delete leading and trailing silent blocks : No
Null samples used in CRC calculations : Yes
Used interface : Installed external ASPI interface

Used output format : User Defined Encoder
Selected bitrate : 1024 kBit/s
Quality : High
Add ID3 tag : Yes
Command line compressor : C:\Program Files (x86)\Exact Audio Copy\Flac\flac.exe
Additional command line options : -6 -V -T "ARTIST=%artist%" -T "TITLE=%title%" -T "ALBUM=%albumtitle%" -T "DATE=%year%" -T "TRACKNUMBER=%tracknr%" -T "GENRE=%genre%" -T "COMMENT=%comment%" -T "BAND=%albuminterpret%" -T "COMPOSER=%composer%" %haslyrics%--tag-from-file=LYRICS="%lyricsfile%"%haslyrics% -T "DISCNUMBER=%cdnumber%" -T "TOTALDISCS=%totalcds%" -T "TOTALTRACKS=%numtracks%" %hascover%--picture="%coverfile%"%hascover% %source% -o %dest%


TOC of the extracted CD

Track | Start | Length | Start sector | End sector
---------------------------------------------------------
1 | 0:00.00 | 3:33.06 | 0 | 15980
2 | 3:33.06 | 4:22.25 | 15981 | 35655
3 | 7:55.31 | 5:00.60 | 35656 | 58215
4 | 12:56.16 | 4:58.27 | 58216 | 80592
5 | 17:54.43 | 4:28.28 | 80593 | 100720
6 | 22:22.71 | 3:28.63 | 100721 | 116383
7 | 25:51.59 | 4:10.49 | 116384 | 135182
8 | 30:02.33 | 5:23.54 | 135183 | 159461
9 | 35:26.12 | 4:47.56 | 159462 | 181042
10 | 40:13.68 | 4:18.07 | 181043 | 200399


Range status and errors

Selected range

Filename C:\mm\Chris Rea\2005 - Blue Guitars [9783937406329]\CD07 - Album Seven. Blues Ballads\Chris Rea - CD07. Blues Ballads.wav

Peak level 99.9 %
Extraction speed 3.0 X
Range quality 100.0 %
Test CRC D1102AC8
Copy CRC D1102AC8
Copy OK

No errors occurred


AccurateRip summary

Track 1 accurately ripped (confidence 6) [23A9D9E1] (AR v2)
Track 2 accurately ripped (confidence 6) [2C6A7115] (AR v2)
Track 3 accurately ripped (confidence 6) [4E043EA5] (AR v2)
Track 4 accurately ripped (confidence 6) [FE1964D7] (AR v2)
Track 5 accurately ripped (confidence 6) [772E4D8A] (AR v2)
Track 6 accurately ripped (confidence 6) [08350BAF] (AR v2)
Track 7 accurately ripped (confidence 6) [0E38744B] (AR v2)
Track 8 accurately ripped (confidence 6) [671EB8CF] (AR v2)
Track 9 accurately ripped (confidence 6) [BDF669B1] (AR v2)
Track 10 accurately ripped (confidence 6) [79516036] (AR v2)

All tracks accurately ripped

End of status report
[свернуть]

Файл CUE

REM GENRE Blues
REM DATE 2005
REM DISCID 800A700A
REM COMMENT "ExactAudioCopy v1.1"
PERFORMER "Chris Rea"
TITLE "CD07. Blues Ballads"
FILE "Chris Rea - CD07. Blues Ballads.flac" WAVE
TRACK 01 AUDIO
TITLE "Last Call"
PERFORMER "Chris Rea"
FLAGS DCP
INDEX 01 00:00:00
TRACK 02 AUDIO
TITLE "Maybe That's All I Need To Know"
PERFORMER "Chris Rea"
FLAGS DCP
INDEX 01 03:33:06
TRACK 03 AUDIO
TITLE "Deep Winter Blues"
PERFORMER "Chris Rea"
FLAGS DCP
INDEX 01 07:55:31
TRACK 04 AUDIO
TITLE "If I Ever Get Over You"
PERFORMER "Chris Rea"
FLAGS DCP
INDEX 01 12:56:16
TRACK 05 AUDIO
TITLE "I Love The Rain"
PERFORMER "Chris Rea"
FLAGS DCP
INDEX 01 17:54:43
TRACK 06 AUDIO
TITLE "My Soul Crying Out For You"
PERFORMER "Chris Rea"
FLAGS DCP
INDEX 01 22:22:71
TRACK 07 AUDIO
TITLE "If That's What You Want"
PERFORMER "Chris Rea"
FLAGS DCP
INDEX 01 25:51:59
TRACK 08 AUDIO
TITLE "There's No One Looking"
PERFORMER "Chris Rea"
FLAGS DCP
INDEX 01 30:02:33
TRACK 09 AUDIO
TITLE "What Became Of You"
PERFORMER "Chris Rea"
FLAGS DCP
INDEX 01 35:26:12
TRACK 10 AUDIO
TITLE "My Deep Blue Ways"
PERFORMER "Chris Rea"
FLAGS DCP
INDEX 01 40:13:68
[свернуть]

Лог проверки качества

AUDIOCHECKER v2.0 beta (build 457) - by Dester - [Ссылки могут видеть только зарегистрированные и активированные пользователи.]
[Only registered and activated users can see links.]
~~~~~~~~~~~~~~~~~~~~~~~~~~~~~~~~~~
-=== НЕ РЕДАКТИРУЙТЕ ЭТОТ ФАЙЛ! ===-

Путь: ...\CD07 - Album Seven. Blues Ballads

01 -=- Chris Rea - CD07. Blues Ballads.flac -=- CDDA (100%)

67132452
[свернуть]

Спектр частот

[свернуть]

Скачать Chris Rea - Album Seven. Blues Ballads

[Ссылки могут видеть только зарегистрированные и активированные пользователи.]
[Only registered and activated users can see links.]

password: sergych
[свернуть]
My opinion of release: 10/10
__________________
TAIFUN.Wings of Soul

Вверх
Пользователь сказал cпасибо:
swint68 (04.12.2018)
  #9
Старый 29.05.2016, 19:29
sergych
Координатор
Досье
 
Аватар для sergych
Релиз Re: Chris Rea - The Blue Guitars


2005 - Chris Rea - Album Eight. Gospel Soul Blues & Motown




Исполнитель/Artist: Chris Rea
Альбом/Album: Album Eight. Gospel Soul Blues & Motown
Год/Year: 2005
Жанр/Genre: Blues
Страна/Country: Германия
Рекорд-лейбл/Record label: Jazzee Blue
Номер в каталоге/Catalogue #: ST0004 CD8
Формат/Format: Free Lossless Audio Codec (*.flac)
Качество/Quality: Lossless
Тип рипа/RIP Type: image+.cue
Продолжительность/Length: 00:53:11
Источник/Source: Собственный рип
Размер/Size: 353.1 MB

Сканы в комплекте

Треклист

01. Sweet Love [0:04:12.07]
02. Break Another Piece Of My Heart [0:04:19.18]
03. Ball And Chain [0:04:52.14]
04. Gospel Trail [0:04:46.31]
05. Shy Boy [0:03:31.12]
06. Come Change My World [0:04:03.30]
07. Call On Me [0:03:56.33]
08. Just In Case You Never Knew [0:04:06.31]
09. Let Me In [0:05:36.49]
10. I'll Be There For You [0:04:03.59]
11. The Pain Of Loving You [0:03:36.18]
12. Are You Ready [0:06:06.73]
[свернуть]

youtube.com

[свернуть]

EAC лог

Exact Audio Copy V1.1 from 23. June 2015

EAC extraction logfile from 11. May 2016, 8:24

Chris Rea / CD08. Gospel Soul Blues & Motown

Used drive : ATAPI iHAS124 D Adapter: 0 ID: 2

Read mode : Secure
Utilize accurate stream : Yes
Defeat audio cache : Yes
Make use of C2 pointers : No

Read offset correction : 6
Overread into Lead-In and Lead-Out : No
Fill up missing offset samples with silence : Yes
Delete leading and trailing silent blocks : No
Null samples used in CRC calculations : Yes
Used interface : Installed external ASPI interface

Used output format : User Defined Encoder
Selected bitrate : 1024 kBit/s
Quality : High
Add ID3 tag : Yes
Command line compressor : C:\Program Files (x86)\Exact Audio Copy\Flac\flac.exe
Additional command line options : -6 -V -T "ARTIST=%artist%" -T "TITLE=%title%" -T "ALBUM=%albumtitle%" -T "DATE=%year%" -T "TRACKNUMBER=%tracknr%" -T "GENRE=%genre%" -T "COMMENT=%comment%" -T "BAND=%albuminterpret%" -T "COMPOSER=%composer%" %haslyrics%--tag-from-file=LYRICS="%lyricsfile%"%haslyrics% -T "DISCNUMBER=%cdnumber%" -T "TOTALDISCS=%totalcds%" -T "TOTALTRACKS=%numtracks%" %hascover%--picture="%coverfile%"%hascover% %source% -o %dest%


TOC of the extracted CD

Track | Start | Length | Start sector | End sector
---------------------------------------------------------
1 | 0:00.00 | 4:12.07 | 0 | 18906
2 | 4:12.07 | 4:19.18 | 18907 | 38349
3 | 8:31.25 | 4:52.14 | 38350 | 60263
4 | 13:23.39 | 4:46.31 | 60264 | 81744
5 | 18:09.70 | 3:31.12 | 81745 | 97581
6 | 21:41.07 | 4:03.30 | 97582 | 115836
7 | 25:44.37 | 3:56.33 | 115837 | 133569
8 | 29:40.70 | 4:06.31 | 133570 | 152050
9 | 33:47.26 | 5:36.49 | 152051 | 177299
10 | 39:24.00 | 4:03.59 | 177300 | 195583
11 | 43:27.59 | 3:36.18 | 195584 | 211801
12 | 47:04.02 | 6:06.73 | 211802 | 239324


Range status and errors

Selected range

Filename C:\mm\Chris Rea\2005 - Blue Guitars [9783937406329]\CD08 - Album Eight. Gospel Soul Blues & Motown\Chris Rea - CD08. Gospel Soul Blues & Motown.wav

Peak level 99.8 %
Extraction speed 3.2 X
Range quality 100.0 %
Test CRC 69BB8512
Copy CRC 69BB8512
Copy OK

No errors occurred


AccurateRip summary

Track 1 accurately ripped (confidence 6) [3EB285CC] (AR v2)
Track 2 accurately ripped (confidence 6) [3B56379C] (AR v2)
Track 3 accurately ripped (confidence 6) [D4AB8AFD] (AR v2)
Track 4 accurately ripped (confidence 6) [45172E2C] (AR v2)
Track 5 accurately ripped (confidence 6) [8C40727E] (AR v2)
Track 6 accurately ripped (confidence 6) [F863AC45] (AR v2)
Track 7 accurately ripped (confidence 6) [6CB330A5] (AR v2)
Track 8 accurately ripped (confidence 6) [66687DCE] (AR v2)
Track 9 accurately ripped (confidence 6) [2AD0E458] (AR v2)
Track 10 accurately ripped (confidence 6) [723F9872] (AR v2)
Track 11 accurately ripped (confidence 6) [9CEE9EDD] (AR v2)
Track 12 accurately ripped (confidence 6) [58910CF2] (AR v2)

All tracks accurately ripped

End of status report
[свернуть]

Файл CUE

REM GENRE Blues
REM DATE 2005
REM DISCID 980C770C
REM COMMENT "ExactAudioCopy v1.1"
PERFORMER "Chris Rea"
TITLE "CD08. Gospel Soul Blues & Motown"
FILE "Chris Rea - CD08. Gospel Soul Blues & Motown.flac" WAVE
TRACK 01 AUDIO
TITLE "Sweet Love"
PERFORMER "Chris Rea"
FLAGS DCP
INDEX 01 00:00:00
TRACK 02 AUDIO
TITLE "Break Another Piece Of My Heart"
PERFORMER "Chris Rea"
FLAGS DCP
INDEX 01 04:12:07
TRACK 03 AUDIO
TITLE "Ball And Chain"
PERFORMER "Chris Rea"
FLAGS DCP
INDEX 01 08:31:25
TRACK 04 AUDIO
TITLE "Gospel Trail"
PERFORMER "Chris Rea"
FLAGS DCP
INDEX 01 13:23:39
TRACK 05 AUDIO
TITLE "Shy Boy"
PERFORMER "Chris Rea"
FLAGS DCP
INDEX 01 18:09:70
TRACK 06 AUDIO
TITLE "Come Change My World"
PERFORMER "Chris Rea"
FLAGS DCP
INDEX 01 21:41:07
TRACK 07 AUDIO
TITLE "Call On Me"
PERFORMER "Chris Rea"
FLAGS DCP
INDEX 01 25:44:37
TRACK 08 AUDIO
TITLE "Just In Case You Never Knew"
PERFORMER "Chris Rea"
FLAGS DCP
INDEX 01 29:40:70
TRACK 09 AUDIO
TITLE "Let Me In"
PERFORMER "Chris Rea"
FLAGS DCP
INDEX 01 33:47:26
TRACK 10 AUDIO
TITLE "I'll Be There For You"
PERFORMER "Chris Rea"
FLAGS DCP
INDEX 01 39:24:00
TRACK 11 AUDIO
TITLE "The Pain Of Loving You"
PERFORMER "Chris Rea"
FLAGS DCP
INDEX 01 43:27:59
TRACK 12 AUDIO
TITLE "Are You Ready"
PERFORMER "Chris Rea"
FLAGS DCP
INDEX 01 47:04:02
[свернуть]

Лог проверки качества

AUDIOCHECKER v2.0 beta (build 457) - by Dester - [Ссылки могут видеть только зарегистрированные и активированные пользователи.]
[Only registered and activated users can see links.]
~~~~~~~~~~~~~~~~~~~~~~~~~~~~~~~~~~
-=== НЕ РЕДАКТИРУЙТЕ ЭТОТ ФАЙЛ! ===-

Путь: ...\CD08 - Album Eight. Gospel Soul Blues & Motown

01 -=- Chris Rea - CD08. Gospel Soul Blues & Motown.flac -=- CDDA (100%)

85470276
[свернуть]

Спектр частот

[свернуть]

Скачать Chris Rea - Album Eight. Gospel Soul Blues & Motown

[Ссылки могут видеть только зарегистрированные и активированные пользователи.]
[Only registered and activated users can see links.]

password: sergych
[свернуть]
My opinion of release: 10/10
__________________
TAIFUN.Wings of Soul

Вверх
Пользователь сказал cпасибо:
swint68 (04.12.2018)
  #10
Старый 29.05.2016, 19:41
sergych
Координатор
Досье
 
Аватар для sergych
Релиз Re: Chris Rea - The Blue Guitars


2005 - Chris Rea - Album Nine. Celtic & Irish Blues




Исполнитель/Artist: Chris Rea
Альбом/Album: Album Nine. Celtic & Irish Blues
Год/Year: 2005
Жанр/Genre: Blues
Страна/Country: Германия
Рекорд-лейбл/Record label: Jazzee Blue
Номер в каталоге/Catalogue #: ST0004 CD9
Формат/Format: Free Lossless Audio Codec (*.flac)
Качество/Quality: Lossless
Тип рипа/RIP Type: image+.cue
Продолжительность/Length: 01:03:53
Источник/Source: Собственный рип
Размер/Size: 396.8 MB

Сканы в комплекте

Треклист

01. Celtic Blue [0:07:59.41]
02. Too Far From Home [0:07:30.46]
03. 'Til The Morning Sun Shines On My Love And Me [0:05:30.67]
04. Lucky Day [0:05:10.29]
05. What She Really Is [0:04:57.06]
06. Wishing Well [0:03:59.59]
07. Irish Blues [0:03:59.29]
08. No More Sorrow [0:05:51.11]
09. While I Remain [0:04:53.38]
10. Last Drink [0:04:57.62]
11. 'Til I Find My True Love's Name [0:03:32.12]
12. Big White Door [0:05:30.50]
[свернуть]

youtube.com

[свернуть]

EAC лог

Exact Audio Copy V1.1 from 23. June 2015

EAC extraction logfile from 11. May 2016, 8:51

Chris Rea / CD09. Celtic & Irish Blues

Used drive : ATAPI iHAS124 D Adapter: 0 ID: 2

Read mode : Secure
Utilize accurate stream : Yes
Defeat audio cache : Yes
Make use of C2 pointers : No

Read offset correction : 6
Overread into Lead-In and Lead-Out : No
Fill up missing offset samples with silence : Yes
Delete leading and trailing silent blocks : No
Null samples used in CRC calculations : Yes
Used interface : Installed external ASPI interface

Used output format : User Defined Encoder
Selected bitrate : 1024 kBit/s
Quality : High
Add ID3 tag : Yes
Command line compressor : C:\Program Files (x86)\Exact Audio Copy\Flac\flac.exe
Additional command line options : -6 -V -T "ARTIST=%artist%" -T "TITLE=%title%" -T "ALBUM=%albumtitle%" -T "DATE=%year%" -T "TRACKNUMBER=%tracknr%" -T "GENRE=%genre%" -T "COMMENT=%comment%" -T "BAND=%albuminterpret%" -T "COMPOSER=%composer%" %haslyrics%--tag-from-file=LYRICS="%lyricsfile%"%haslyrics% -T "DISCNUMBER=%cdnumber%" -T "TOTALDISCS=%totalcds%" -T "TOTALTRACKS=%numtracks%" %hascover%--picture="%coverfile%"%hascover% %source% -o %dest%


TOC of the extracted CD

Track | Start | Length | Start sector | End sector
---------------------------------------------------------
1 | 0:00.00 | 7:59.41 | 0 | 35965
2 | 7:59.41 | 7:30.46 | 35966 | 69761
3 | 15:30.12 | 5:30.67 | 69762 | 94578
4 | 21:01.04 | 5:10.29 | 94579 | 117857
5 | 26:11.33 | 4:57.06 | 117858 | 140138
6 | 31:08.39 | 3:59.59 | 140139 | 158122
7 | 35:08.23 | 3:59.29 | 158123 | 176076
8 | 39:07.52 | 5:51.11 | 176077 | 202412
9 | 44:58.63 | 4:53.38 | 202413 | 224425
10 | 49:52.26 | 4:57.62 | 224426 | 246762
11 | 54:50.13 | 3:32.12 | 246763 | 262674
12 | 58:22.25 | 5:30.50 | 262675 | 287474


Range status and errors

Selected range

Filename C:\mm\Chris Rea\2005 - Blue Guitars [9783937406329]\CD09 - Album Nine. Celtic & Irish Blues\Chris Rea - CD09. Celtic & Irish Blues.wav

Peak level 99.8 %
Extraction speed 6.0 X
Range quality 99.9 %
Test CRC D9BA22B4
Copy CRC D9BA22B4
Copy OK

No errors occurred


AccurateRip summary

Track 1 accurately ripped (confidence 6) [E941E640] (AR v2)
Track 2 accurately ripped (confidence 6) [88A42F49] (AR v2)
Track 3 accurately ripped (confidence 6) [85F347F0] (AR v2)
Track 4 accurately ripped (confidence 6) [38D39A70] (AR v2)
Track 5 accurately ripped (confidence 6) [E59871DF] (AR v2)
Track 6 accurately ripped (confidence 6) [7C82FD26] (AR v2)
Track 7 accurately ripped (confidence 6) [FE6A623B] (AR v2)
Track 8 accurately ripped (confidence 6) [A88467FE] (AR v2)
Track 9 accurately ripped (confidence 6) [F0D51B57] (AR v2)
Track 10 accurately ripped (confidence 6) [B10D5FD7] (AR v2)
Track 11 accurately ripped (confidence 6) [205D3DA8] (AR v2)
Track 12 accurately ripped (confidence 6) [21FFF6B0] (AR v2)

All tracks accurately ripped

End of status report
[свернуть]

Файл CUE

REM GENRE Blues
REM DATE 2005
REM DISCID 9C0EF90C
REM COMMENT "ExactAudioCopy v1.1"
PERFORMER "Chris Rea"
TITLE "CD09. Celtic & Irish Blues"
FILE "Chris Rea - CD09. Celtic & Irish Blues.flac" WAVE
TRACK 01 AUDIO
TITLE "Celtic Blue"
PERFORMER "Chris Rea"
FLAGS DCP
INDEX 01 00:00:00
TRACK 02 AUDIO
TITLE "Too Far From Home"
PERFORMER "Chris Rea"
FLAGS DCP
INDEX 01 07:59:41
TRACK 03 AUDIO
TITLE "'Til The Morning Sun Shines On My Love And Me"
PERFORMER "Chris Rea"
FLAGS DCP
INDEX 01 15:30:12
TRACK 04 AUDIO
TITLE "Lucky Day"
PERFORMER "Chris Rea"
FLAGS DCP
INDEX 01 21:01:04
TRACK 05 AUDIO
TITLE "What She Really Is"
PERFORMER "Chris Rea"
FLAGS DCP
INDEX 01 26:11:33
TRACK 06 AUDIO
TITLE "Wishing Well"
PERFORMER "Chris Rea"
FLAGS DCP
INDEX 01 31:08:39
TRACK 07 AUDIO
TITLE "Irish Blues"
PERFORMER "Chris Rea"
FLAGS DCP
INDEX 01 35:08:23
TRACK 08 AUDIO
TITLE "No More Sorrow"
PERFORMER "Chris Rea"
FLAGS DCP
INDEX 01 39:07:52
TRACK 09 AUDIO
TITLE "While I Remain"
PERFORMER "Chris Rea"
FLAGS DCP
INDEX 01 44:58:63
TRACK 10 AUDIO
TITLE "Last Drink"
PERFORMER "Chris Rea"
FLAGS DCP
INDEX 01 49:52:26
TRACK 11 AUDIO
TITLE "'Til I Find My True Love's Name"
PERFORMER "Chris Rea"
FLAGS DCP
INDEX 01 54:50:13
TRACK 12 AUDIO
TITLE "Big White Door"
PERFORMER "Chris Rea"
FLAGS DCP
INDEX 01 58:22:25
[свернуть]

Лог проверки качества

AUDIOCHECKER v2.0 beta (build 457) - by Dester - [Ссылки могут видеть только зарегистрированные и активированные пользователи.]
[Only registered and activated users can see links.]
~~~~~~~~~~~~~~~~~~~~~~~~~~~~~~~~~~
-=== НЕ РЕДАКТИРУЙТЕ ЭТОТ ФАЙЛ! ===-

Путь: ...\CD09 - Album Nine. Celtic & Irish Blues

01 -=- Chris Rea - CD09. Celtic & Irish Blues.flac -=- CDDA (100%)

118452852
[свернуть]

Спектр частот

[свернуть]

Скачать Chris Rea - Album Nine. Celtic & Irish Blues

[Ссылки могут видеть только зарегистрированные и активированные пользователи.]
[Only registered and activated users can see links.]

password: sergych
[свернуть]
My opinion of release: 10/10
__________________
TAIFUN.Wings of Soul

Вверх
Пользователь сказал cпасибо:
swint68 (04.12.2018)
Похожие темы
Тема Автор Раздел Ответов Последнее сообщение
Сборник Chris Rea - Blue Guitars: A Collection Of Songs sergych Blues Rock 0 06.11.2013 20:28
Альбом Chris Rea - Blue Street (Five Guitars) sergych Jazz и Blues 0 08.08.2008 05:20


Метки
2005 , blues , blues rock , chris rea , the blue guitars

Опции темы

Ваши права в разделе
Вы не можете создавать новые темы
Вы не можете отвечать в темах
Вы не можете прикреплять вложения
Вы не можете редактировать свои сообщения

Быстрый переход



Текущее время: 18:40. Часовой пояс GMT +3.
Powered by vBulletin® Version 3.8.10
Copyright ©2000 - 2019, vBulletin Solutions, Inc. Перевод: zCarot
© 2008 - 2019 Taifun With Song
Яндекс.Метрика