TAIFUN With Song - качественная и редкая музыка
Навигация
А знаете ли Вы, что...
Зачем Джимми Хендрикс на некоторых концертах целовал в щёку своего бас-гитариста?
«В песне Джимми Хендрикса «Purple Haze» есть строчка: «Excuse me while I kiss the sky» («Прости меня, когда я целую небеса»). Очень часто слушатели понимали её совсем по-другому: «Excuse me while I kiss this guy» («Прости меня, когда я целую этого парня»). Сам Хендрикс знал об этой ослышке и иногда после исполнения этой строчки целовал в щёку своего бас-гитариста.»
 
Опции темы

  #1
Старый 30.12.2019, 18:31
swint68
Релизёр
Досье
 
Аватар для swint68
FLAC Boney M - The Magic Of Boney M


2006 - Boney M - The Magic Of Boney M



[Ссылки могут видеть только зарегистрированные и активированные пользователи.]
[Only registered and activated users can see links.]


Исполнитель/Artist: Boney M
Альбом/Album: The Magic Of Boney M
Год/Year: 2006
Ремастеринг/Remaster: 2019
Жанр/Genre: Disco | Pop
Страна/Country: Япония
Рекорд-лейбл/Record label: Sony Music Labels Inc.
Номер в каталоге/Catalogue #: SICP 31300
Формат/Format: Free Lossless Audio Codec (*.flac)
Качество/Quality: Lossless
Тип рипа/RIP Type: image+.cue
Продолжительность/Length: 01:18:02
Источник/Source: HaRD
Размер/Size: 587 MB

Сканы в комплекте

Треклист

01. Daddy Cool
02. Sunny
03. Rivers Of Babylon
04. El Lute
05. No Woman No Cry
06. Hooray! Hooray! It’s A Holi-Holiday
07. Rasputin
08. Painter Man
09. Belfast
10. Brown Girl In The Ring
11. Kalimba De Luna
12. Happy Song
13. Still I’m Sad
14. Mary’s Boy Child / Oh My Lord
15. Baby Do You Wanna Bump
16. Felicidad
17. Gotta Go Home
18. Ma Baker
19. Sunny (bonus' Mousse T. remix)
20. A Moment Of Love (bonus' feat. Liz Mitchell)
21. Bahama Mama (bonus)
[свернуть]

Превью на YouTube

[свернуть]

EAC лог

Exact Audio Copy V1.1 from 23. June 2015

EAC extraction logfile from 15. November 2019, 22:18

Boney M. / The Magic Of Boney M. (SICP-31300)

Used drive : TSSTcorpDVDWBD SH-B123L Adapter: 0 ID: 4

Read mode : Secure
Utilize accurate stream : Yes
Defeat audio cache : Yes
Make use of C2 pointers : No

Read offset correction : 6
Overread into Lead-In and Lead-Out : No
Fill up missing offset samples with silence : Yes
Delete leading and trailing silent blocks : No
Null samples used in CRC calculations : Yes
Used interface : Installed external ASPI interface

Used output format : User Defined Encoder
Selected bitrate : 768 kBit/s
Quality : High
Add ID3 tag : No
Command line compressor : C:\Program Files (x86)\Exact Audio Copy\FLAC\FLAC.EXE
Additional command line options : -6 -V -T "ARTIST=%artist%" -T "TITLE=%title%" -T "ALBUM=%albumtitle%" -T "DATE=%year%" -T "TRACKNUMBER=%tracknr%" -T "GENRE=%genre%" -T "COMMENT=%comment%" -T "BAND=%albuminterpret%" -T "ALBUMARTIST=%albuminterpret%" -T "COMPOSER=%composer%" %haslyrics%--tag-from-file=LYRICS="%lyricsfile%"%haslyrics% -T "DISCNUMBER=%cdnumber%" -T "TOTALDISCS=%totalcds%" -T "TOTALTRACKS=%numtracks%" %hascover%--picture="%coverfile%"%hascover% %source% -o %dest%


TOC of the extracted CD

Track | Start | Length | Start sector | End sector
---------------------------------------------------------
1 | 0:00.00 | 3:27.61 | 0 | 15585
2 | 3:27.61 | 3:57.58 | 15586 | 33418
3 | 7:25.44 | 4:16.03 | 33419 | 52621
4 | 11:41.47 | 3:59.62 | 52622 | 70608
5 | 15:41.34 | 4:18.52 | 70609 | 90010
6 | 20:00.11 | 3:56.14 | 90011 | 107724
7 | 23:56.25 | 4:26.34 | 107725 | 127708
8 | 28:22.59 | 3:17.40 | 127709 | 142523
9 | 31:40.24 | 3:27.54 | 142524 | 158102
10 | 35:08.03 | 4:01.56 | 158103 | 176233
11 | 39:09.59 | 4:13.23 | 176234 | 195231
12 | 43:23.07 | 3:58.42 | 195232 | 213123
13 | 47:21.49 | 4:25.67 | 213124 | 233065
14 | 51:47.41 | 4:02.00 | 233066 | 251215
15 | 55:49.41 | 2:27.66 | 251216 | 262306
16 | 58:17.32 | 2:52.36 | 262307 | 275242
17 | 61:09.68 | 2:33.09 | 275243 | 286726
18 | 63:43.02 | 4:06.49 | 286727 | 305225
19 | 67:49.51 | 3:20.29 | 305226 | 320254
20 | 71:10.05 | 3:14.60 | 320255 | 334864
21 | 74:24.65 | 3:37.14 | 334865 | 351153


Range status and errors

Selected range

Filename E:\MUSIC\Boney M. - The Magic Of Boney M. (SICP-31300).wav

Peak level 99.9 %
Extraction speed 4.0 X
Range quality 100.0 %
Test CRC F4E2362D
Copy CRC F4E2362D
Copy OK

No errors occurred


AccurateRip summary

Track 1 not present in database
Track 2 not present in database
Track 3 not present in database
Track 4 not present in database
Track 5 not present in database
Track 6 not present in database
Track 7 not present in database
Track 8 not present in database
Track 9 not present in database
Track 10 not present in database
Track 11 not present in database
Track 12 not present in database
Track 13 not present in database
Track 14 not present in database
Track 15 not present in database
Track 16 not present in database
Track 17 not present in database
Track 18 not present in database
Track 19 not present in database
Track 20 not present in database
Track 21 not present in database

None of the tracks are present in the AccurateRip database

End of status report

==== Log checksum B74F55DB61F04BE8738E26753BF8EBDF8F9009D1F1CE7FB9054E49F3B3F3160A ====
[свернуть]

Файл CUE

REM GENRE Euro-Disco
REM DATE 2006
REM DISCID 15124A15
REM COMMENT "ExactAudioCopy v1.1"
PERFORMER "Boney M."
TITLE "The Magic Of Boney M. (SICP-31300)"
FILE "Boney M. - The Magic Of Boney M. (SICP-31300).flac" WAVE
TRACK 01 AUDIO
TITLE "Daddy Cool"
PERFORMER "Boney M."
INDEX 01 00:00:00
TRACK 02 AUDIO
TITLE "Sunny"
PERFORMER "Boney M."
INDEX 01 03:27:61
TRACK 03 AUDIO
TITLE "Rivers Of Babylon"
PERFORMER "Boney M."
INDEX 01 07:25:44
TRACK 04 AUDIO
TITLE "El Lute"
PERFORMER "Boney M."
INDEX 01 11:41:47
TRACK 05 AUDIO
TITLE "No Woman No Cry"
PERFORMER "Boney M."
INDEX 00 15:40:44
INDEX 01 15:41:34
TRACK 06 AUDIO
TITLE "Hooray! Hooray! It's A Holi-Holiday"
PERFORMER "Boney M."
INDEX 00 19:59:61
INDEX 01 20:00:11
TRACK 07 AUDIO
TITLE "Rasputin"
PERFORMER "Boney M."
INDEX 00 23:55:66
INDEX 01 23:56:25
TRACK 08 AUDIO
TITLE "Painter Man"
PERFORMER "Boney M."
INDEX 00 28:22:38
INDEX 01 28:22:59
TRACK 09 AUDIO
TITLE "Belfast"
PERFORMER "Boney M."
INDEX 00 31:40:05
INDEX 01 31:40:24
TRACK 10 AUDIO
TITLE "Brown Girl In The Ring"
PERFORMER "Boney M."
INDEX 01 35:08:03
TRACK 11 AUDIO
TITLE "Kalimba De Luna"
PERFORMER "Boney M."
INDEX 00 39:09:01
INDEX 01 39:09:59
TRACK 12 AUDIO
TITLE "Happy Song"
PERFORMER "Boney M."
INDEX 01 43:23:07
TRACK 13 AUDIO
TITLE "Still I'm Sad"
PERFORMER "Boney M."
INDEX 00 47:21:35
INDEX 01 47:21:49
TRACK 14 AUDIO
TITLE "Mary's Boy Child / Oh My Lord"
PERFORMER "Boney M."
INDEX 00 51:46:58
INDEX 01 51:47:41
TRACK 15 AUDIO
TITLE "Baby Do You Wanna Bump"
PERFORMER "Boney M."
INDEX 01 55:49:41
TRACK 16 AUDIO
TITLE "Felicidad"
PERFORMER "Boney M."
INDEX 00 58:17:02
INDEX 01 58:17:32
TRACK 17 AUDIO
TITLE "Gotta Go Home"
PERFORMER "Boney M."
INDEX 00 61:09:10
INDEX 01 61:09:68
TRACK 18 AUDIO
TITLE "Ma Baker"
PERFORMER "Boney M."
INDEX 00 63:42:59
INDEX 01 63:43:02
TRACK 19 AUDIO
TITLE "Sunny (Mousse T. Remix)"
PERFORMER "Boney M."
INDEX 01 67:49:51
TRACK 20 AUDIO
TITLE "A Moment Of Love"
PERFORMER "Boney M."
INDEX 00 71:09:70
INDEX 01 71:10:05
TRACK 21 AUDIO
TITLE "Bahama Mama (Bonus Track)"
PERFORMER "Boney M."
INDEX 00 74:23:16
INDEX 01 74:24:65
[свернуть]

Лог проверки качества

AUDIOCHECKER v2.0 beta (build 457) - by Dester - [Ссылки могут видеть только зарегистрированные и активированные пользователи.]
[Only registered and activated users can see links.]
~~~~~~~~~~~~~~~~~~~~~~~~~~~~~~~~~~
-=== НЕ РЕДАКТИРУЙТЕ ЭТОТ ФАЙЛ! ===-

Путь: ...\2006(2019) - The Magic Of Boney M. (SICP-31300)

1 -=- Boney M. - The Magic Of Boney M. (SICP-31300).flac -=- CDDA (100%)

21108740
================

-----------------------

DON'T MODIFY THIS FILE

-----------------------

PERFORMER: auCDtect Task Manager, ver. 1.6.0 RC1 build 1.6.0.1
Copyright © 2008-2010 y-soft. All rights reserved
[Ссылки могут видеть только зарегистрированные и активированные пользователи.]
[Only registered and activated users can see links.]

ANALYZER: auCDtect: CD records authenticity detector, version 0.8.2
Copyright © 2004 Oleg Berngardt. All rights reserved.
Copyright © 2004 Alexander Djourik. All rights reserved.


FILE: Boney M. - The Magic Of Boney M. (SICP-31300).flac
Size: 579695110 Hash: F0B1EFF9954DE3DAFBCFC3A4EA548BE1 Accuracy: -m8
Conclusion: CDDA 100%
Signature: 2F8AB7C8D3AAC6310F394CCB454657933CD8384D
[свернуть]

Отчёт Dynamic Range Meter

Код:
foobar2000 2.0 / Замер динамического диапазона (DR) 1.1.1
Дата отчёта:		2023-08-19 14:11:57

--------------------------------------------------------------------------------
Анализ:   Boney M. / The Magic Of Boney M. (SICP-31300)
--------------------------------------------------------------------------------

DR         Пики         RMS           Продолжительность трека
--------------------------------------------------------------------------------
DR9       -0.07 дБ   -10.27 дБ      3:28 01-Daddy Cool
DR9       -0.08 дБ   -10.51 дБ      3:58 02-Sunny
DR9       -0.08 дБ   -10.19 дБ      4:16 03-Rivers Of Babylon
DR8       -0.08 дБ    -9.78 дБ      4:00 04-El Lute
DR10      -0.08 дБ   -11.53 дБ      4:19 05-No Woman No Cry
DR8       -0.01 дБ    -9.54 дБ      3:56 06-Hooray! Hooray! It's A Holi-Holiday
DR8       -0.08 дБ    -9.47 дБ      4:26 07-Rasputin
DR7       -0.08 дБ    -8.62 дБ      3:18 08-Painter Man
DR8       -0.08 дБ    -9.65 дБ      3:28 09-Belfast
DR10      -0.08 дБ   -10.75 дБ      4:02 10-Brown Girl In The Ring
DR8       -0.07 дБ    -9.31 дБ      4:13 11-Kalimba De Luna
DR9       -0.08 дБ   -10.34 дБ      3:59 12-Happy Song
DR8       -0.08 дБ   -10.61 дБ      4:26 13-Still I'm Sad
DR8       -0.02 дБ    -9.55 дБ      4:02 14-Mary's Boy Child / Oh My Lord
DR9       -0.08 дБ   -10.95 дБ      2:28 15-Baby Do You Wanna Bump
DR9       -0.08 дБ   -10.86 дБ      2:52 16-Felicidad
DR9       -0.08 дБ    -9.44 дБ      2:33 17-Gotta Go Home
DR9       -0.08 дБ   -10.47 дБ      4:07 18-Ma Baker
DR7       -0.01 дБ    -8.54 дБ      3:20 19-Sunny (Mousse T. Remix)
DR8        0.00 дБ    -9.53 дБ      3:15 20-A Moment Of Love
DR7       -0.01 дБ    -7.94 дБ      3:37 21-Bahama Mama (Bonus Track)
--------------------------------------------------------------------------------

Количество треков:	21
Реальные значения DR:	DR8

Частота:			44100 Гц
Каналов:			2
Разрядность: 		16
Битрейт:			990 кбит/с
Кодек:			FLAC
================================================================================
[свернуть]

Спектр частот

[свернуть]

Скачать Boney M - The Magic Of Boney M

[Ссылки могут видеть только зарегистрированные и активированные пользователи.]
[Only registered and activated users can see links.]

password: sergych
[свернуть]

Контрольная сумма (хеш-сумма) архива

MD5: 692b2929fb90b52775479f6eaa33c19f
[свернуть]
My rating to this release: 10/10


Последний раз редактировалось sergych, 19.08.2023 в 17:28. Причина: перезалил убитую ссылку
swint68 вне форума  
Вверх
6 пользователя(ей) сказали cпасибо:
abas13 (04.01.2020), djborik (03.05.2020), Sergio Amoroso (03.09.2023), sergych (30.12.2019), TAIFUN (31.12.2019), yurimagua (03.05.2020)
 
  #2
Старый 19.08.2023, 18:03
sergych
Координатор
Досье
 
Аватар для sergych
По умолчанию Re: Boney M - The Magic Of Boney M

перезалил убитую ссылку, добавление недостающей информации о релизе
__________________
TAIFUN.Wings of Soul

sergych вне форума  
Вверх
Пользователь сказал cпасибо:
TAIFUN (23.08.2023)
Похожие темы
Тема Автор Раздел Ответов Последнее сообщение
Альбом Boney M. - Christmas With Boney M aheron Disco 0 24.05.2013 23:51
Альбом Boney M. - Eye Dance aheron Disco 0 24.05.2013 23:01
Альбом Boney M. - Boonoonoonoos aheron Disco 0 23.05.2013 15:00


Метки
2006 , 2019 , boney m , disco | pop , japan , the magic of boney m

Опции темы

Ваши права в разделе
Вы не можете создавать новые темы
Вы не можете отвечать в темах
Вы не можете прикреплять вложения
Вы не можете редактировать свои сообщения

Быстрый переход


Текущее время: 05:04. Часовой пояс GMT +3.

©2008 - 2024 Taifun With Song
Powered by vBulletin® Version 3.8.10
Copyright ©2000 - 2024, vBulletin Solutions, Inc. Перевод: zCarot
При поддержке NIC.UA
0.98524 сек. | MySQL: 17