TAIFUN With Song - качественная и редкая музыка
Навигация
Folk (народная) Традиционная музыка отдельно взятого народа или культуры. Она несёт в себе частичку самобытности народа, отражает его ментальность.

А знаете ли Вы, что...
В какую группу взяли гитариста главным образом для того, чтобы он мог покупать спиртное остальным музыкантам?
«Когда Декстер Холланд и Грег Крисел, будучи учениками выпускного класса школы, создали группу Offspring, они пригласили в неё гитариста Кевина «Нудлс» Вассермана. Тот был старше на три года, работал школьным уборщиком и уже имел опыт игры в рок-группе. Но главной причиной приглашения стало то, что Вассерман был совершеннолетним и мог покупать спиртное Холланду и Криселу.»
 
Опции темы

  #1
Старый 10.12.2009, 22:19
TAIFUN
Admin
Досье
 
Аватар для TAIFUN
FLAC Хелависа - Леопард в городе


2009 - Хелависа - Леопард в городе




Исполнитель/Artist: Хелависа
Альбом/Album: Леопард в городе
Год/Year: 2009
Жанр/Genre: Folk | Folk-Rock | Folk-Jazz
Страна/Country: Россия
Рекорд-лейбл/Record label: Navigator Records
Номер в каталоге/Catalogue #: NR 0310 CD
Формат/Format: Free Lossless Audio Codec (*.flac)
Качество/Quality: Lossless
Тип рипа/RIP Type: image+.cue


Продолжительность/Length: 00:39:40
Источник/Source: Из интернета
Размер/Size: 310 MB

Сканы в комплекте

Треклист

1. Бродяга
2. Леопард в городе
3. Под луной
4. Увядание листьев
5. Листья под дождем
6. Гимн деревьям
7. Королевна
8. Королевская охота
9. Дракула - рил
10. Маргарита
11. Гретхен за прялкой
[свернуть]

EAC лог

Exact Audio Copy V0.99 prebeta 5 from 4. May 2009

Отчёт EAC об извлечении, выполненном 13. января 2012, 12:48

Хелависа / Леопард в городе

Дисковод: _NEC DVD_RW ND-3550A Adapter: 0 ID: 0

Режим чтения : Достоверность
Использование точного потока : Да
Отключение кэша аудио : Да
Использование указателей C2 : Нет

Коррекция смещения при чтении : 48
Способность читать области Lead-in и Lead-out : Нет
Заполнение пропущенных сэмплов тишиной : Да
Удаление блоков с тишиной в начале и конце : Нет
При вычислениях CRC использовались нулевые сэмплы : Да
Интерфейс : Установленный внешний ASPI-интерфейс

Выходной формат : Внутренние WAV-операции
Формат сэмплов : 44.100 Гц; 16 бит; стерео


TOC извлечённого CD

Трек | Старт | Длительность | Начальный сектор | Конечный сектор
---------------------------------------------------------------------
1 | 0:00.00 | 2:54.66 | 0 | 13115
2 | 2:54.66 | 3:37.24 | 13116 | 29414
3 | 6:32.15 | 3:28.46 | 29415 | 45060
4 | 10:00.61 | 4:13.20 | 45061 | 64055
5 | 14:14.06 | 2:59.73 | 64056 | 77553
6 | 17:14.04 | 3:56.01 | 77554 | 95254
7 | 21:10.05 | 5:25.28 | 95255 | 119657
8 | 26:35.33 | 4:20.46 | 119658 | 139203
9 | 30:56.04 | 2:10.51 | 139204 | 149004
10 | 33:06.55 | 2:48.25 | 149005 | 161629
11 | 35:55.05 | 3:44.40 | 161630 | 178469


Характеристики диапазона извлечения и сообщения об ошибках

Выбранный диапазон

Имя файла F:\Music lossless\Хелависа - Леопард в городе.wav

Пиковый уровень 99.4 %
Качество диапазона 100.0 %
CRC теста D7DCC776
CRC копии D7DCC776
Копирование... OK

Ошибок не произошло


AccurateRip: сводка

Трек 1 точное извлечение (доверие 1) [C96886A8]
Трек 2 точное извлечение (доверие 1) [907D4F75]
Трек 3 точное извлечение (доверие 1) [84315BA4]
Трек 4 точное извлечение (доверие 1) [2A979529]
Трек 5 точное извлечение (доверие 1) [6ECE00FA]
Трек 6 точное извлечение (доверие 1) [421AF3C6]
Трек 7 точное извлечение (доверие 1) [E4BE824B]
Трек 8 точное извлечение (доверие 1) [443C41B1]
Трек 9 точное извлечение (доверие 1) [E8880FCF]
Трек 10 точное извлечение (доверие 1) [C56D6E1B]
Трек 11 точное извлечение (доверие 1) [E462A4FB]

Все треки извлечены точно

Конец отчёта
[свернуть]

Файл CUE

REM GENRE Folk/Rock
REM DATE 2009
REM DISCID A6094B0B
REM COMMENT "ExactAudioCopy v0.99pb5"
PERFORMER "Хелависа"
TITLE "Леопард в городе"
FILE "Хелависа - Леопард в городе.flac" WAVE
TRACK 01 AUDIO
TITLE "Бродяга"
PERFORMER "Хелависа"
FLAGS DCP
INDEX 01 00:00:00
TRACK 02 AUDIO
TITLE "Леопард в городе"
PERFORMER "Хелависа"
FLAGS DCP
INDEX 00 02:52:66
INDEX 01 02:54:66
TRACK 03 AUDIO
TITLE "Под луной"
PERFORMER "Хелависа"
FLAGS DCP
INDEX 00 06:30:15
INDEX 01 06:32:15
TRACK 04 AUDIO
TITLE "Увядание листьев"
PERFORMER "Хелависа"
FLAGS DCP
INDEX 00 09:58:61
INDEX 01 10:00:61
TRACK 05 AUDIO
TITLE "Листья под дождем"
PERFORMER "Хелависа"
FLAGS DCP
INDEX 00 14:12:06
INDEX 01 14:14:06
TRACK 06 AUDIO
TITLE "Гимн деревьям"
PERFORMER "Хелависа"
FLAGS DCP
INDEX 00 17:12:04
INDEX 01 17:14:04
TRACK 07 AUDIO
TITLE "Королевна"
PERFORMER "Хелависа"
FLAGS DCP
INDEX 00 21:08:05
INDEX 01 21:10:05
TRACK 08 AUDIO
TITLE "Королевская охота"
PERFORMER "Хелависа"
FLAGS DCP
INDEX 00 26:33:33
INDEX 01 26:35:33
TRACK 09 AUDIO
TITLE "Дракула-рил"
PERFORMER "Хелависа"
FLAGS DCP
INDEX 00 30:54:04
INDEX 01 30:56:04
TRACK 10 AUDIO
TITLE "Маргарита"
PERFORMER "Хелависа"
FLAGS DCP
INDEX 00 33:04:55
INDEX 01 33:06:55
TRACK 11 AUDIO
TITLE "Гретхен за прялкой"
PERFORMER "Хелависа"
FLAGS DCP
INDEX 00 35:53:05
INDEX 01 35:55:05
[свернуть]

Лог проверки качества

-----------------------

DON'T MODIFY THIS FILE

-----------------------

PERFORMER: auCDtect Task Manager, ver. 1.5.1RC4 build 1.5.1.5
Copyright © 2008-2010 y-soft. All rights reserved
[Ссылки могут видеть только зарегистрированные и активированные пользователи.]
[Only registered and activated users can see links.]

ANALYZER: auCDtect: CD records authenticity detector, version 0.8.2
Copyright © 2004 Oleg Berngardt. All rights reserved.
Copyright © 2004 Alexander Djourik. All rights reserved.


FILE: Хелависа - Леопард в городе.flac
Size: 275496965 Hash: 77C4BD06EA0AE10BC17396E700535734 Accuracy: -m0
Conclusion: CDDA 100%
Signature: 66DB576999D82A3C72681356ED1607CC6089B9BC
[свернуть]

Отчёт Dynamic Range Meter

Код:
foobar2000 1.3.17 / Dynamic Range Meter 1.1.1
log date: 2022-07-31 22:06:32

--------------------------------------------------------------------------------
Analyzed: Хелависа / Леопард в городе
--------------------------------------------------------------------------------

DR         Peak         RMS     Duration Track
--------------------------------------------------------------------------------
DR8       -0.05 dB    -9.48 dB      2:55 ?-Бродяга
DR6       -0.05 dB    -8.51 dB      3:37 ?-Леопард в городе
DR6       -0.05 dB    -8.11 dB      3:29 ?-Под луной
DR7       -0.05 dB    -9.20 dB      4:13 ?-Увядание листьев
DR6       -0.05 dB    -9.87 dB      3:00 ?-Листья под дождем
DR7       -0.05 dB    -9.59 dB      3:56 ?-Гимн деревьям
DR7       -0.05 dB    -9.69 dB      5:25 ?-Королевна
DR7       -0.05 dB   -10.56 dB      4:21 ?-Королевская охота
DR8       -0.05 dB   -10.85 dB      2:11 ?-Дракула-рил
DR6       -0.05 dB    -7.22 dB      2:48 ?-Маргарита
DR6       -0.05 dB    -8.52 dB      3:45 ?-Гретхен за прялкой
--------------------------------------------------------------------------------

Number of tracks:  11
Official DR value: DR7

Samplerate:        44100 Hz
Channels:          2
Bits per sample:   16
Bitrate:           926 kbps
Codec:             FLAC
================================================================================
[свернуть]

Спектр частот

[свернуть]

Скачать Хелависа - Леопард в городе

[Ссылки могут видеть только зарегистрированные и активированные пользователи.]
[Only registered and activated users can see links.]

Пароль: taifun.ws
[свернуть]

Контрольная сумма (хеш-сумма) архива


CRC-32: ede14ba3
MD5: d25a5fb1bac6801702f1429ae4508fb8
SHA-1: ca47835ccc01c23087bb25defe10f48308f38642
SHA-256: ede4eb38c61239a78634dd7880d3830df56599326473c5de22c4089addf7405b
SHA-512: a16ad6c49a550f2d1883cb9e15f9c413c3713eed66b6bf6df1a93f09bb4dcf1fe64a8e41f3690840e6df2859e3e528fdf63f0e56557ed95cd87e26874fdfaa1e
SHA3-256: 2b5c4cc4bfab351795d3dc34c8d00ca4171cb1633f2f4165e429febff3efe96d
SHA3-512: 3aa605ca3d89c25da1c7baed6b0bd15cea27a5d67661c7ba9969e931307113b6d46830a3598b421cb1a8929f0e499abe77957600dc4d61b1d19dfee471ce077e
[свернуть]
My opinion of release: 9/10

Release info RInfo

Хелависа - участница группы "Мельница".

Производство физических копий – ЗАО "Линос"
Дистрибьютор – Торговая Компания "Монолит"

Штрих-код: 4 640004 102131
Матрица / внутреннее кольцо: NR 0310 CD
SID-код пресс-формы: IFPI AEJ08

TAIFUN вне форума  
Вверх
 
  #2
Старый 11.12.2009, 10:41
PUPOKIN
Релизёр
Досье
 
Аватар для PUPOKIN
320 Хелависа [Мельница] - Леопард в городе


Исполнитель: Хелависа [Мельница]
Альбом: Леопард в городе
Дата выпуска: 2009
Стиль: Folk | Folk-Rock | Folk-Jazz
Количество композиций: 13
Время звучания: 45 min
Формат | Битрейт: MP3 | 320 kbps
Размер: 145 mb


Треклист + 2 бонусных трека

1. Хелависа - Бродяга (2:54)
2. Хелависа - Леопард в городе (3:37)
3. Хелависа - Под луной (3:28)
4. Хелависа - Увядание листьев (4:13)
5. Хелависа - Листья под дождем (2:59)
6. Хелависа - Гимн деревьям (3:56)
7. Хелависа - Королевна (5:25)
8. Хелависа - Королевская охота (4:20)
9. Хелависа - Дракула - рил (2:10)
10. Хелависа - Маргарита (2:48)
11. Хелависа - Гретхен за прялкой (3:46)
12. Хелависа - Сонет IX (E-moll) (3:10)
13. Хелависа - Сонет XVII (G-dur) (1:52)
[свернуть]

Скачать

[Ссылки могут видеть только зарегистрированные и активированные пользователи.]
[Only registered and activated users can see links.]
Пароль: taifun.ws
[свернуть]


Последний раз редактировалось TAIFUN, 31.07.2022 в 22:37. Причина: Перезалив
PUPOKIN вне форума  
Вверх
Пользователь сказал cпасибо:
TAIFUN (21.07.2022)
  #3
Старый 04.08.2011, 09:59
Tenk
Меломан
Досье
 
Аватар для Tenk
По умолчанию Re: Хелависа [Мельница] - Леопард в городе

Обожаю ее песни.Многие из них стали для меня большим и неожиданным открытием(Маленький ёжик).А некоторые(Королевна,Господин горных дорог) во многих смыслах были для меня гимном по жизни.
От музыки очень многое зависит.И настроение это лишь маленькая часть.

Tenk вне форума  
Вверх
Пользователь сказал cпасибо:
TAIFUN (21.07.2022)
  #4
Старый 21.07.2022, 18:20
TAIFUN
Admin
Досье
 
Аватар для TAIFUN
По умолчанию Re: Хелависа [Мельница] - Леопард в городе

Перезалито.
__________________
FAQ по форуму
Правила форума
Mare liberum apertum - Море открыто для всех
Нет на земле живого существа столь жёсткого, крутого, адски злого, чтоб не могла хотя на час один в нём музыка свершить переворота.

TAIFUN вне форума  
Вверх
  #5
Старый 31.07.2022, 22:35
TAIFUN
Admin
Досье
 
Аватар для TAIFUN
По умолчанию Re: Хелависа - Леопард в городе

Добавлена FLAC версия.
__________________
FAQ по форуму
Правила форума
Mare liberum apertum - Море открыто для всех
Нет на земле живого существа столь жёсткого, крутого, адски злого, чтоб не могла хотя на час один в нём музыка свершить переворота.

TAIFUN вне форума  
Вверх
Похожие темы
Тема Автор Раздел Ответов Последнее сообщение
Альбом Umaturman - В городе N sergych Russian Rock 0 15.01.2017 16:54
Релиз Хелависа & Лазерсон и друзья - Новые Ботинки PUPOKIN Folk (народная) 0 04.11.2013 10:11
Саундтрек Любовь в большом городе 2 PUPOKIN Саундтреки 0 04.03.2010 14:43
Саундтрек Любовь в большом городе PUPOKIN Саундтреки 0 13.03.2009 15:06


Метки
2009 , folk | folk-rock | folk-jazz , леопард в городе , хелависа

Опции темы

Ваши права в разделе
Вы не можете создавать новые темы
Вы не можете отвечать в темах
Вы не можете прикреплять вложения
Вы не можете редактировать свои сообщения

Быстрый переход


Текущее время: 16:32. Часовой пояс GMT +3.

© 2008 - 2022 Taifun With Song
Powered by vBulletin® Version 3.8.10
Copyright ©2000 - 2022, vBulletin Solutions, Inc. Перевод: zCarot
При поддержке NIC.UA
0.95488 сек. | MySQL: 17