TAIFUN With Song - качественная и редкая музыка
Навигация
А знаете ли Вы, что...
Какой суперхит изначально не планировался к созданию и не понравился исполнительнице?
«Изначально Джеймс Кэмерон не хотел включать в «Титаник» никаких песен. Однако композитор фильма Джеймс Хорнер твёрдо решил создать полноценную вокальную версию своих инструментальных наработок и сам вышел на Селин Дион с предложением спеть «My Heart Will Go On». Певице композиция совершенно не понравилась, но потом её всё же уговорили сделать одну запись, которая была показана Кэмерону. Тот утвердил песню, причём повторных записей Селин Дион не проводили, и в саундтрек была включена та самая демо-версия. В итоге она стала одним из самых продаваемых синглов в истории музыки.»
 
Опции темы

  #1
Старый 03.03.2017, 20:03
sergych
Координатор
Досье
 
Аватар для sergych
FLAC Johnny Hates Jazz - Best of the 80's


2000 - Johnny Hates Jazz - Best of the 80's




Исполнитель/Artist: Johnny Hates Jazz
Альбом/Album: Best of the 80's
Год/Year: 2000
Жанр/Genre: Sophisti-pop, Synth-pop
Страна/Country: Нидерланды
Рекорд-лейбл/Record label: Disky
Номер в каталоге/Catalogue #: SI 993832
Формат/Format: Free Lossless Audio Codec (*.flac)
Качество/Quality: Lossless
Тип рипа/RIP Type: image+.cue
Продолжительность/Length: 01:01:59
Источник/Source: Собственный рип
Размер/Size: 447.9 MB

Сканы в комплекте

Треклист

01. Shattered Dreams [0:03:30.61]
02. My Secret Garden [0:03:21.43]
03. Turn Back The Clock [0:04:21.08]
04. I Don't Want To Be A Hero [0:03:28.13]
05. Cracking Up [0:03:42.19]
06. The Cage [0:03:59.56]
07. Heart Of Gold [0:03:28.25]
08. Don't Say It's Love [0:03:46.26]
09. Living In The Past [0:03:37.18]
10. Me And My Foolish Heart [0:03:28.60]
11. What Other Reason [0:03:21.05]
12. Different Seasons [0:03:32.57]
13. Listen [0:03:47.05]
14. Don't Let It End This Way [0:03:42.39]
15. Turn The Tide [0:03:45.61]
16. Turn Back The Clock (Mendelsohn Mix) [0:07:05.11]
[свернуть]

youtube.com

[свернуть]

EAC лог

Exact Audio Copy V1.2 from 12. August 2016

EAC extraction logfile from 28. February 2017, 22:41

Johnny Hates Jazz / Best of the 80's

Used drive : PLEXTOR DVDR PX-716A Adapter: 1 ID: 0

Read mode : Secure
Utilize accurate stream : Yes
Defeat audio cache : Yes
Make use of C2 pointers : No

Read offset correction : 30
Overread into Lead-In and Lead-Out : No
Fill up missing offset samples with silence : Yes
Delete leading and trailing silent blocks : No
Null samples used in CRC calculations : Yes
Used interface : Native Win32 interface for Win NT & 2000

Used output format : User Defined Encoder
Selected bitrate : 1024 kBit/s
Quality : High
Add ID3 tag : No
Command line compressor : C:\Program Files (x86)\Exact Audio Copy\FLAC\FLAC.EXE
Additional command line options : -6 -V -T "ARTIST=%artist%" -T "TITLE=%title%" -T "ALBUM=%albumtitle%" -T "DATE=%year%" -T "TRACKNUMBER=%tracknr%" -T "GENRE=%genre%" -T "COMMENT=%comment%" -T "BAND=%albuminterpret%" -T "ALBUMARTIST=%albuminterpret%" -T "COMPOSER=%composer%" %haslyrics%--tag-from-file=LYRICS="%lyricsfile%"%haslyrics% -T "DISCNUMBER=%cdnumber%" -T "TOTALDISCS=%totalcds%" -T "TOTALTRACKS=%numtracks%" %hascover%--picture="%coverfile%"%hascover% %source% -o %dest%


TOC of the extracted CD

Track | Start | Length | Start sector | End sector
---------------------------------------------------------
1 | 0:00.00 | 3:30.61 | 0 | 15810
2 | 3:30.61 | 3:21.43 | 15811 | 30928
3 | 6:52.29 | 4:21.08 | 30929 | 50511
4 | 11:13.37 | 3:28.13 | 50512 | 66124
5 | 14:41.50 | 3:42.19 | 66125 | 82793
6 | 18:23.69 | 3:59.56 | 82794 | 100774
7 | 22:23.50 | 3:28.25 | 100775 | 116399
8 | 25:52.00 | 3:46.26 | 116400 | 133375
9 | 29:38.26 | 3:37.18 | 133376 | 149668
10 | 33:15.44 | 3:28.60 | 149669 | 165328
11 | 36:44.29 | 3:21.05 | 165329 | 180408
12 | 40:05.34 | 3:32.57 | 180409 | 196365
13 | 43:38.16 | 3:47.05 | 196366 | 213395
14 | 47:25.21 | 3:42.39 | 213396 | 230084
15 | 51:07.60 | 3:45.61 | 230085 | 247020
16 | 54:53.46 | 7:05.11 | 247021 | 278906


Range status and errors

Selected range

Filename C:\mm\Johnny Hates Jazz\2000 - Best of the '80s [SI 993832]\Johnny Hates Jazz - Best of the 80's.wav

Peak level 97.7 %
Extraction speed 8.5 X
Range quality 99.9 %
Test CRC E4853711
Copy CRC E4853711
Copy OK

No errors occurred


AccurateRip summary

Track 1 accurately ripped (confidence 8) [AF4AAA6F] (AR v2)
Track 2 accurately ripped (confidence 8) [207ADD0E] (AR v2)
Track 3 accurately ripped (confidence 8) [8E879E3C] (AR v2)
Track 4 accurately ripped (confidence 8) [409D62D7] (AR v2)
Track 5 accurately ripped (confidence 8) [54EE1815] (AR v2)
Track 6 accurately ripped (confidence 7) [C8E0AEA2] (AR v2)
Track 7 accurately ripped (confidence 7) [125F4DE6] (AR v2)
Track 8 accurately ripped (confidence 7) [F9DBA3B6] (AR v2)
Track 9 accurately ripped (confidence 7) [BB526E3F] (AR v2)
Track 10 accurately ripped (confidence 7) [E5C9F1F8] (AR v2)
Track 11 accurately ripped (confidence 7) [C38465FB] (AR v2)
Track 12 accurately ripped (confidence 7) [2C7F590D] (AR v2)
Track 13 accurately ripped (confidence 7) [B7A57B0F] (AR v2)
Track 14 accurately ripped (confidence 7) [BF8FDDDF] (AR v2)
Track 15 accurately ripped (confidence 7) [022DD845] (AR v2)
Track 16 accurately ripped (confidence 7) [6FB3D9F4] (AR v2)

All tracks accurately ripped

End of status report

---- CUETools DB Plugin V2.1.6

[CTDB TOCID: X65s6r8R9evNI5V4ZIkINmmK8sI-] found
Submit result: X65s6r8R9evNI5V4ZIkINmmK8sI- has been confirmed
Track | CTDB Status
1 | (8/8) Accurately ripped
2 | (8/8) Accurately ripped
3 | (8/8) Accurately ripped
4 | (8/8) Accurately ripped
5 | (8/8) Accurately ripped
6 | (8/8) Accurately ripped
7 | (8/8) Accurately ripped
8 | (8/8) Accurately ripped
9 | (8/8) Accurately ripped
10 | (8/8) Accurately ripped
11 | (8/8) Accurately ripped
12 | (8/8) Accurately ripped
13 | (8/8) Accurately ripped
14 | (8/8) Accurately ripped
15 | (8/8) Accurately ripped
16 | (8/8) Accurately ripped
[свернуть]

Файл CUE

REM GENRE Pop
REM DATE 2000
REM DISCID DD0E8610
REM COMMENT "ExactAudioCopy v1.2"
PERFORMER "Johnny Hates Jazz"
TITLE "Best of the 80's"
REM COMPOSER ""
FILE "Johnny Hates Jazz - Best of the 80's.flac" WAVE
TRACK 01 AUDIO
TITLE "Shattered Dreams"
PERFORMER "Johnny Hates Jazz"
REM COMPOSER ""
INDEX 01 00:00:00
TRACK 02 AUDIO
TITLE "My Secret Garden"
PERFORMER "Johnny Hates Jazz"
REM COMPOSER ""
INDEX 00 03:29:05
INDEX 01 03:30:61
TRACK 03 AUDIO
TITLE "Turn Back The Clock"
PERFORMER "Johnny Hates Jazz"
REM COMPOSER ""
INDEX 00 06:50:47
INDEX 01 06:52:29
TRACK 04 AUDIO
TITLE "I Don't Want To Be A Hero"
PERFORMER "Johnny Hates Jazz"
REM COMPOSER ""
INDEX 00 11:11:55
INDEX 01 11:13:37
TRACK 05 AUDIO
TITLE "Cracking Up"
PERFORMER "Johnny Hates Jazz"
REM COMPOSER ""
INDEX 00 14:39:68
INDEX 01 14:41:50
TRACK 06 AUDIO
TITLE "The Cage"
PERFORMER "Johnny Hates Jazz"
REM COMPOSER ""
INDEX 00 18:22:12
INDEX 01 18:23:69
TRACK 07 AUDIO
TITLE "Heart Of Gold"
PERFORMER "Johnny Hates Jazz"
REM COMPOSER ""
INDEX 00 22:21:68
INDEX 01 22:23:50
TRACK 08 AUDIO
TITLE "Don't Say It's Love"
PERFORMER "Johnny Hates Jazz"
REM COMPOSER ""
INDEX 00 25:50:18
INDEX 01 25:52:00
TRACK 09 AUDIO
TITLE "Living In The Past"
PERFORMER "Johnny Hates Jazz"
REM COMPOSER ""
INDEX 00 29:36:44
INDEX 01 29:38:26
TRACK 10 AUDIO
TITLE "Me And My Foolish Heart"
PERFORMER "Johnny Hates Jazz"
REM COMPOSER ""
INDEX 00 33:13:62
INDEX 01 33:15:44
TRACK 11 AUDIO
TITLE "What Other Reason"
PERFORMER "Johnny Hates Jazz"
REM COMPOSER ""
INDEX 00 36:42:47
INDEX 01 36:44:29
TRACK 12 AUDIO
TITLE "Different Seasons"
PERFORMER "Johnny Hates Jazz"
REM COMPOSER ""
INDEX 00 40:03:52
INDEX 01 40:05:34
TRACK 13 AUDIO
TITLE "Listen"
PERFORMER "Johnny Hates Jazz"
REM COMPOSER ""
INDEX 00 43:36:34
INDEX 01 43:38:16
TRACK 14 AUDIO
TITLE "Don't Let It End This Way"
PERFORMER "Johnny Hates Jazz"
REM COMPOSER ""
INDEX 00 47:23:39
INDEX 01 47:25:21
TRACK 15 AUDIO
TITLE "Turn The Tide"
PERFORMER "Johnny Hates Jazz"
REM COMPOSER ""
INDEX 00 51:06:03
INDEX 01 51:07:60
TRACK 16 AUDIO
TITLE "Turn Back The Clock (Mendelsohn Mix)"
PERFORMER "Johnny Hates Jazz"
REM COMPOSER ""
INDEX 00 54:51:64
INDEX 01 54:53:46
[свернуть]

Лог проверки качества

AUDIOCHECKER v2.0 beta (build 457) - by Dester - [Ссылки могут видеть только зарегистрированные и активированные пользователи.]
[Only registered and activated users can see links.]
~~~~~~~~~~~~~~~~~~~~~~~~~~~~~~~~~~
-=== НЕ РЕДАКТИРУЙТЕ ЭТОТ ФАЙЛ! ===-

Путь: ...\2000 - Best of the '80s [SI 993832]

1 -=- Johnny Hates Jazz - Best of the 80's.flac -=- CDDA (100%)

44470372
[свернуть]

Спектр частот

[свернуть]

Скачать Johnny Hates Jazz - Best of the 80's

[Ссылки могут видеть только зарегистрированные и активированные пользователи.]
[Only registered and activated users can see links.]

password: sergych
[свернуть]

Контрольная сумма (хеш-сумма) архива

MD5: 7331b303c70b118f1394cfbc9c365213
[свернуть]
My opinion of release: 10/10
__________________
TAIFUN.Wings of Soul

sergych вне форума  
Вверх
2 пользователя(ей) сказали cпасибо:
Guilli (05.07.2021), swint68 (03.03.2017)
 
  #2
Старый 13.09.2022, 00:00
Donald
Пользователь
Досье
 
Аватар для Donald
По умолчанию Re: Johnny Hates Jazz - Best of the 80's

Как ролучить пароль к архиву?

Donald вне форума  
Вверх
  #3
Старый 13.09.2022, 11:50
TAIFUN
Admin
Досье
 
Аватар для TAIFUN
По умолчанию Re: Johnny Hates Jazz - Best of the 80's

@Donald, он написан под ссылкой.
__________________
FAQ по форуму
Правила форума
Mare liberum apertum - Море открыто для всех
Нет на земле живого существа столь жёсткого, крутого, адски злого, чтоб не могла хотя на час один в нём музыка свершить переворота.

TAIFUN вне форума  
Вверх
Похожие темы
Тема Автор Раздел Ответов Последнее сообщение
Альбом Johnny Hates Jazz - Turn Back The Clock sergych Зарубежная Поп-Музыка 0 01.03.2017 20:47
Сборник Johnny Hates Jazz - The Very Best of Johnny Hates Jazz sergych Зарубежная Поп-Музыка 0 15.02.2017 19:44
Сборник VA - The Jazz Masters: 27 Classic Performances From The Columbia Jazz Masterpieces Se sergych Jazz и Blues 0 15.02.2014 10:04
4Kuba - Johnny Depp Krueger Breakbeat & Breaks 0 29.10.2008 00:50
DJ Johnny DarkDan House 0 27.04.2008 12:17


Метки
2000 , best of the 80's , johnny hates jazz , sophisti-pop , synth-pop

Опции темы

Ваши права в разделе
Вы не можете создавать новые темы
Вы не можете отвечать в темах
Вы не можете прикреплять вложения
Вы не можете редактировать свои сообщения

Быстрый переход


Текущее время: 17:26. Часовой пояс GMT +3.

© 2008 - 2022 Taifun With Song
Powered by vBulletin® Version 3.8.10
Copyright ©2000 - 2022, vBulletin Solutions, Inc. Перевод: zCarot
При поддержке NIC.UA
0.26539 сек. | MySQL: 17