TAIFUN With Song - качественная и редкая музыка
Навигация
А знаете ли Вы, что...
За какие заслуги музыкантов принимают в «Клуб 27»?
«Среди известных рок- и блюз-музыкантов весьма значительна доля тех, кто умер в 27 лет. Именно в этом возрасте почему-то возникает статистическая погрешность, выделяющаяся из нормального распределения. Для таких музыкантов даже приняли название «Клуб 27». В него включают Джима Моррисона, Джими Хендрикса, Дженис Джоплин, Курта Кобейна и Брайана Джонса. В 27 лет умер также легендарный советский рок-музыкант и поэт Александр Башлачёв.»
 
Опции темы

  #1
Старый 16.11.2013, 11:32
sergych
Координатор
Досье
 
Аватар для sergych
FLAC Wham! - The Final


1986 - Wham! - The Final




Исполнитель/Artist: Wham!
Альбом/Album: The Final
Год/Year: 1986
Жанр/Genre: New Wave, synthpop, post-disco, blue-eyed soul
Рекорд-лейбл/Record label: EPIC / SONY
Номер в каталоге/Catalogue #: CDEPC 88681 / S0108868110-0101
Формат/Format: MPEG Layer-3 (*.mp3)
Качество/Quality: CBR 320 kbps
Тип рипа/RIP Type: tracks
Продолжительность/Length: 01:11:01
Источник/Source: Собственный рип
Размер/Size: 230.7 MB

Сканы в комплекте

Треклист

01 - Wham Rap! (Enjoy What You Do)
02 - Young Guns (Go for It!)
03 - Bad Boys
04 - Club Tropicana
05 - Wake Me Up Before You Go-Go
06 - Careless Whisper
07 - Freedom
08 - Last Christmas (Pudding mix)
09 - Everything She Wants (remix)
10 - I'm Your Man
11 - A Different Corner
12 - Battlestations
13 - Where Did Your Heart Go
14 - The Edge of Heaven
[свернуть]

youtube.com

[свернуть]

Скачать Wham! - The Final

[Ссылки могут видеть только зарегистрированные и активированные пользователи.]
[Only registered and activated users can see links.]

password: sergych
[свернуть]
My opinion of release: 9/10
__________________
TAIFUN.Wings of Soul

sergych вне форума  
Вверх
Пользователь сказал cпасибо:
Sergio Amoroso (23.08.2022)
 
  #2
Старый 18.11.2013, 21:15
sergych
Координатор
Досье
 
Аватар для sergych
FLAC Wham! - The Final


1986 - Wham! - The Final




Исполнитель/Artist: Wham!
Альбом/Album: The Final
Год/Year: 1986
Жанр/Genre: New Wave, synthpop, post-disco, blue-eyed soul
Страна/Country: Европа
Рекорд-лейбл/Record label: EPIC / SONY
Номер в каталоге/Catalogue #: CDEPC 88681 / S0108868110-0101
Формат/Format: Free Lossless Audio Codec (*.flac)
Качество/Quality: Lossless
Тип рипа/RIP Type: image+.cue



Продолжительность/Length: 01:11:01
Источник/Source: Собственный рип
Размер/Size: 533.8 MB

Сканы в комплекте

Треклист

01. Wham Rap! (Enjoy What You Do?) [0:06:41.72]
02. Young Guns (Go for It!) [0:05:11.50]
03. Bad Boys [0:03:19.55]
04. Club Tropicana [0:04:28.33]
05. Wake Me Up Before You Go-Go [0:03:50.50]
06. Careless Whisper [0:05:03.17]
07. Freedom [0:05:20.10]
08. Last Christmas (Pudding mix) [0:06:45.63]
09. Everything She Wants (remix) [0:06:29.55]
10. I'm Your Man [0:04:03.55]
11. A Different Corner [0:03:58.20]
12. Battlestations [0:05:30.35]
13. Where Did Your Heart Go? [0:05:42.50]
14. The Edge of Heaven [0:04:34.65]
[свернуть]

youtube.com

[свернуть]

EAC лог

Exact Audio Copy V1.0 beta 3 from 29. August 2011

EAC extraction logfile from 15. November 2013, 20:02

Wham! / The Final

Used drive : ATAPI iHAS124 D Adapter: 0 ID: 2

Read mode : Secure
Utilize accurate stream : Yes
Defeat audio cache : Yes
Make use of C2 pointers : No

Read offset correction : 6
Overread into Lead-In and Lead-Out : No
Fill up missing offset samples with silence : Yes
Delete leading and trailing silent blocks : No
Null samples used in CRC calculations : Yes
Used interface : Installed external ASPI interface

Used output format : User Defined Encoder
Selected bitrate : 1024 kBit/s
Quality : High
Add ID3 tag : No
Command line compressor : C:\Program Files (x86)\Exact Audio Copy\Flac\flac.exe
Additional command line options : -6 -V -T "ARTIST=%artist%" -T "TITLE=%title%" -T "ALBUM=%albumtitle%" -T "DATE=%year%" -T "TRACKNUMBER=%tracknr%" -T "GENRE=%genre%" -T "COMMENT=%comment%" -T "BAND=%albuminterpret%" -T "COMPOSER=%composer%" %haslyrics%--tag-from-file=LYRICS="%lyricsfile%"%haslyrics% -T "DISCNUMBER=%cdnumber%" -T "TOTALDISCS=%totalcds%" -T "TOTALTRACKS=%numtracks%" %hascover%--picture="%coverfile%"%hascover% %source% -o %dest%


TOC of the extracted CD

Track | Start | Length | Start sector | End sector
---------------------------------------------------------
1 | 0:00.00 | 6:41.72 | 0 | 30146
2 | 6:41.72 | 5:11.50 | 30147 | 53521
3 | 11:53.47 | 3:19.55 | 53522 | 68501
4 | 15:13.27 | 4:28.33 | 68502 | 88634
5 | 19:41.60 | 3:50.50 | 88635 | 105934
6 | 23:32.35 | 5:03.17 | 105935 | 128676
7 | 28:35.52 | 5:20.10 | 128677 | 152686
8 | 33:55.62 | 6:45.63 | 152687 | 183124
9 | 40:41.50 | 6:29.55 | 183125 | 212354
10 | 47:11.30 | 4:03.55 | 212355 | 230634
11 | 51:15.10 | 3:58.20 | 230635 | 248504
12 | 55:13.30 | 5:30.35 | 248505 | 273289
13 | 60:43.65 | 5:42.50 | 273290 | 298989
14 | 66:26.40 | 4:34.65 | 298990 | 319604


Range status and errors

Selected range

Filename C:\mm\Wham!\1986 - The Final [CD 88681]\Wham! - The Final.wav

Peak level 100.0 %
Extraction speed 10.3 X
Range quality 100.0 %
Test CRC AD67AF9B
Copy CRC AD67AF9B
Copy OK

No errors occurred


AccurateRip summary

Track 1 accurately ripped (confidence 13) [7E9DBFFC] (AR v2)
Track 2 accurately ripped (confidence 13) [A1E7E612] (AR v2)
Track 3 accurately ripped (confidence 13) [B8A8B2AF] (AR v2)
Track 4 accurately ripped (confidence 13) [7F40A670] (AR v2)
Track 5 accurately ripped (confidence 13) [44907338] (AR v2)
Track 6 accurately ripped (confidence 13) [0709FF1C] (AR v2)
Track 7 accurately ripped (confidence 13) [7C580FBB] (AR v2)
Track 8 accurately ripped (confidence 14) [F9CAF3EF] (AR v2)
Track 9 accurately ripped (confidence 13) [16F203CA] (AR v2)
Track 10 accurately ripped (confidence 13) [EE6FE191] (AR v2)
Track 11 accurately ripped (confidence 13) [AD03DDC3] (AR v2)
Track 12 accurately ripped (confidence 13) [B7DD669D] (AR v2)
Track 13 accurately ripped (confidence 12) [423278B6] (AR v2)
Track 14 accurately ripped (confidence 12) [6E7EDCBA] (AR v2)

All tracks accurately ripped

End of status report
[свернуть]

Файл CUE

REM DATE 1986
REM DISCID C010A50E
REM COMMENT "ExactAudioCopy v1.0b3"
PERFORMER "Wham!"
TITLE "The Final"
FILE "Wham! - The Final.flac" WAVE
TRACK 01 AUDIO
TITLE "Wham Rap! (Enjoy What You Do?)"
PERFORMER "Wham!"
INDEX 01 00:00:00
TRACK 02 AUDIO
TITLE "Young Guns (Go for It!)"
PERFORMER "Wham!"
INDEX 01 06:41:72
TRACK 03 AUDIO
TITLE "Bad Boys"
PERFORMER "Wham!"
INDEX 00 11:52:70
INDEX 01 11:53:47
TRACK 04 AUDIO
TITLE "Club Tropicana"
PERFORMER "Wham!"
INDEX 00 15:12:65
INDEX 01 15:13:27
TRACK 05 AUDIO
TITLE "Wake Me Up Before You Go-Go"
PERFORMER "Wham!"
INDEX 01 19:41:60
TRACK 06 AUDIO
TITLE "Careless Whisper"
PERFORMER "Wham!"
INDEX 01 23:32:35
TRACK 07 AUDIO
TITLE "Freedom"
PERFORMER "Wham!"
INDEX 00 28:35:05
INDEX 01 28:35:52
TRACK 08 AUDIO
TITLE "Last Christmas (Pudding mix)"
PERFORMER "Wham!"
INDEX 00 33:55:32
INDEX 01 33:55:62
TRACK 09 AUDIO
TITLE "Everything She Wants (remix)"
PERFORMER "Wham!"
INDEX 00 40:40:27
INDEX 01 40:41:50
TRACK 10 AUDIO
TITLE "I'm Your Man"
PERFORMER "Wham!"
INDEX 00 47:11:15
INDEX 01 47:11:30
TRACK 11 AUDIO
TITLE "A Different Corner"
PERFORMER "Wham!"
INDEX 00 51:14:37
INDEX 01 51:15:10
TRACK 12 AUDIO
TITLE "Battlestations"
PERFORMER "Wham!"
INDEX 00 55:13:00
INDEX 01 55:13:30
TRACK 13 AUDIO
TITLE "Where Did Your Heart Go?"
PERFORMER "Wham!"
INDEX 01 60:43:65
TRACK 14 AUDIO
TITLE "The Edge of Heaven"
PERFORMER "Wham!"
INDEX 01 66:26:40
[свернуть]

Лог проверки качества

PERFORMER: auCDtect Task Manager, ver. 1.6.0 RC1 build 1.6.0.1
Copyright © 2008-2010 y-soft. All rights reserved
[Ссылки могут видеть только зарегистрированные и активированные пользователи.]
[Only registered and activated users can see links.]

ANALYZER: auCDtect: CD records authenticity detector, version 0.8.2
Copyright © 2004 Oleg Berngardt. All rights reserved.
Copyright © 2004 Alexander Djourik. All rights reserved.

FILE: Wham! - The Final.flac
Size: 487370189 Hash: C0E8A24398CE389391A12C2BF3333AD5 Accuracy: -m0
Conclusion: MPEG 95%
Signature: B1E7C7271391A7B68552C48BA487CEBCD8E3243F
[свернуть]

Спектр частот

[свернуть]

Скачать Wham! - The Final

[Ссылки могут видеть только зарегистрированные и активированные пользователи.]
[Only registered and activated users can see links.]

password: sergych
[свернуть]
My opinion of release: 9/10
__________________
TAIFUN.Wings of Soul

sergych вне форума  
Вверх
3 пользователя(ей) сказали cпасибо:
Guilli (06.09.2022), Sergio Amoroso (23.08.2022), TAIFUN (24.08.2022)
  #3
Старый 23.08.2022, 15:31
Sergio Amoroso
Мультиаккаунт
Досье
 
Аватар для Sergio Amoroso
По умолчанию Re: Wham! - The Final

Только здесь нашёл в хорошем качестве, пол дня искал и вот ... Успех !!! Огромное Спасибо.

Sergio Amoroso вне форума  
Вверх
2 пользователя(ей) сказали cпасибо:
sergych (27.08.2022), TAIFUN (24.08.2022)
Похожие темы
Тема Автор Раздел Ответов Последнее сообщение
Final Exit – Let Me Out PUPOKIN Hardcore Rock 0 28.11.2016 15:16
Альбом Wham! - Make It Big sergych Зарубежная Поп-Музыка 0 15.11.2013 23:29
Релиз Kitaro - Final Call PUPOKIN New age 0 14.09.2013 10:08
Сборник Led Zeppelin - Final Cut PUPOKIN Hard Rock 0 18.01.2010 10:48
Альбом Paramore - The Final Riot! PUPOKIN Alternative Rock 0 26.11.2008 16:09


Метки
1986 , blue-eyed soul , george michael , new wave , post-disco , synthpop , the final , wham!

Опции темы

Ваши права в разделе
Вы не можете создавать новые темы
Вы не можете отвечать в темах
Вы не можете прикреплять вложения
Вы не можете редактировать свои сообщения

Быстрый переход


Текущее время: 16:52. Часовой пояс GMT +3.

© 2008 - 2022 Taifun With Song
Powered by vBulletin® Version 3.8.10
Copyright ©2000 - 2022, vBulletin Solutions, Inc. Перевод: zCarot
При поддержке NIC.UA
1.28570 сек. | MySQL: 17