TAIFUN With Song - качественная и редкая музыка
Навигация
А знаете ли Вы, что...
Как выбрали длительность звучания компакт-диска?
«Вместимость компакт-диска была выбрана японскими разработчиками так, чтобы на нём полностью поместилась девятая симфония Бетховена — любимое произведение вице-президента Сони. Хотя итоговая длительность диска в 74 минуты, возникшая в результате разных технических согласований, была всё же на полминуты меньше длительности симфонии.»
 
Опции темы

  #1
Старый 02.10.2013, 19:03
sergych
Координатор
Досье
 
Аватар для sergych
FLAC Adriano Celentano - Quel Punto


1994 - Adriano Celentano - Quel Punto




Исполнитель/Artist: Adriano Celentano
Альбом/Album: Quel Punto
Год/Year: 1994
Жанр/Genre: Italo pop, Pop
Страна/Country: Германия
Рекорд-лейбл/Record label: Clan Celentano S.l.r. / Warner Music
Номер в каталоге/Catalogue #: 4509-97319-2
Формат/Format: Free Lossless Audio Codec (*.flac)
Качество/Quality: Lossless
Тип рипа/RIP Type: image+.cue
Продолжительность/Length: 00:56:14
Источник/Source: Из интернета
Размер/Size: 365.4 MB

Сканы в комплекте

Треклист

01 - Quel Punto
02 - La Casa Dell'amore
03 - Rap
04 - Il Seme Del Rap
05 - Attraverso Me
06a - I Want To Know (I Parte)
06b - I Want To Know (II Parte)
07 - La Trappola
08 - Ja Tebia Liubliu
09 - La camera 21
10 - Uh...Uh...
11 - Rifugio Bianco
12 - Sanmatio
[свернуть]

youtube.com

[свернуть]

EAC лог

Exact Audio Copy V0.99 prebeta 3 from 28. July 2007

EAC extraction logfile from 17. February 2009, 17:20

Adriano Celentano / Quel Punto

Used drive : TSSTcorpCDDVDW SH-S203B Adapter: 7 ID: 0

Read mode : Secure
Utilize accurate stream : Yes
Defeat audio cache : Yes
Make use of C2 pointers : No

Read offset correction : 6
Overread into Lead-In and Lead-Out : No
Fill up missing offset samples with silence : Yes
Delete leading and trailing silent blocks : No
Null samples used in CRC calculations : Yes
Used interface : Installed external ASPI interface

Used output format : User Defined Encoder
Selected bitrate : 1024 kBit/s
Quality : High
Add ID3 tag : No
Command line compressor : C:\Program Files\FLAC\flac.exe
Additional command line options : -8 -V -T "ARTIST=%a" -T "TITLE=%t" -T "ALBUM=%g" -T "DATE=%y" -T "TRACKNUMBER=%n" -T "GENRE=%m" -T "COMMENT=%e" %s -o %d
Use compression offset : 48


TOC of the extracted CD

Track | Start | Length | Start sector | End sector
---------------------------------------------------------
1 | 0:00.00 | 5:33.58 | 0 | 25032
2 | 5:33.58 | 4:24.47 | 25033 | 44879
3 | 9:58.30 | 1:08.50 | 44880 | 50029
4 | 11:07.05 | 4:14.05 | 50030 | 69084
5 | 15:21.10 | 5:10.40 | 69085 | 92374
6 | 20:31.50 | 2:25.65 | 92375 | 103314
7 | 22:57.40 | 6:52.15 | 103315 | 134229
8 | 29:49.55 | 5:55.63 | 134230 | 160917
9 | 35:45.43 | 5:32.35 | 160918 | 185852
10 | 41:18.03 | 5:44.70 | 185853 | 211722
11 | 47:02.73 | 4:34.37 | 211723 | 232309
12 | 51:37.35 | 1:45.60 | 232310 | 240244
13 | 53:23.20 | 2:50.55 | 240245 | 253049


Range status and errors

Selected range

Filename T:\CD\Adriano Celentano\Adriano Celentano - Quel Punto\Adriano Celentano - Quel Punto.wav

Peak level 98.8 %
Range quality 99.9 %
Copy CRC 54D4C20D
Copy OK

No errors occurred


AccurateRip summary

Track 1 accurately ripped (confidence 2) [69B0CB44]
Track 2 accurately ripped (confidence 2) [4A49F214]
Track 3 accurately ripped (confidence 2) [E4092EF3]
Track 4 accurately ripped (confidence 2) [DE363ACE]
Track 5 accurately ripped (confidence 2) [A85AA5F6]
Track 6 accurately ripped (confidence 2) [76365324]
Track 7 accurately ripped (confidence 2) [C5E5343B]
Track 8 accurately ripped (confidence 2) [53F77EF4]
Track 9 accurately ripped (confidence 2) [CDAC5DD6]
Track 10 accurately ripped (confidence 2) [0B94FD01]
Track 11 accurately ripped (confidence 2) [E06F6A6A]
Track 12 accurately ripped (confidence 2) [A5CF55AB]
Track 13 accurately ripped (confidence 2) [65A6D14A]

All tracks accurately ripped

End of status report
[свернуть]

Файл CUE

REM GENRE "Italo Pop/Rock"
REM DATE 1994
REM DISCID B00D2E0D
REM COMMENT "ExactAudioCopy v0.99pb3"
CATALOG 4509973190207
PERFORMER "Adriano Celentano"
TITLE "Quel Punto"
FILE "Adriano Celentano - Quel Punto.flac" WAVE
TRACK 01 AUDIO
TITLE "Quel Punto"
PERFORMER "Adriano Celentano"
INDEX 01 00:00:00
TRACK 02 AUDIO
TITLE "La Casa Dell'Amore"
PERFORMER "Adriano Celentano"
INDEX 01 05:33:58
TRACK 03 AUDIO
TITLE "RAP"
PERFORMER "Adriano Celentano"
INDEX 01 09:58:30
TRACK 04 AUDIO
TITLE "Il Seme Del Rap"
PERFORMER "Adriano Celentano"
INDEX 01 11:07:05
TRACK 05 AUDIO
TITLE "Attraverso Me"
PERFORMER "Adriano Celentano"
INDEX 01 15:21:10
TRACK 06 AUDIO
TITLE "I Want To Know I"
PERFORMER "Adriano Celentano"
INDEX 01 20:31:50
TRACK 07 AUDIO
TITLE "I Want To Know II"
PERFORMER "Adriano Celentano"
INDEX 01 22:57:40
TRACK 08 AUDIO
TITLE "La Trappola"
PERFORMER "Adriano Celentano"
INDEX 01 29:49:55
TRACK 09 AUDIO
TITLE "Ja Tebia Liubliu"
PERFORMER "Adriano Celentano"
INDEX 01 35:45:43
TRACK 10 AUDIO
TITLE "La Camera"
PERFORMER "Adriano Celentano"
INDEX 01 41:18:03
TRACK 11 AUDIO
TITLE "Uh.. Uh.."
PERFORMER "Adriano Celentano"
INDEX 01 47:02:73
TRACK 12 AUDIO
TITLE "Rifugio Bianco"
PERFORMER "Adriano Celentano"
INDEX 01 51:37:35
TRACK 13 AUDIO
TITLE "Sanmatio"
PERFORMER "Adriano Celentano"
INDEX 01 53:23:20
[свернуть]

Лог проверки качества

AUDIOCHECKER v2.0 beta (build 457) - by Dester - [Ссылки могут видеть только зарегистрированные и активированные пользователи.]
[Only registered and activated users can see links.]
~~~~~~~~~~~~~~~~~~~~~~~~~~~~~~~~~~
-=== НЕ РЕДАКТИРУЙТЕ ЭТОТ ФАЙЛ! ===-

Путь: ...\1994 - Quel Punto

1 -=- Adriano Celentano - Quel Punto.flac -=- CDDA (99%)

91222356
[свернуть]

Скачать Adriano Celentano - Quel Punto

[Ссылки могут видеть только зарегистрированные и активированные пользователи.]
[Only registered and activated users can see links.]

password: sergych
[свернуть]
My opinion of release: 10/10

Об исполнителе
__________________
TAIFUN.Wings of Soul

sergych вне форума  
Вверх
Пользователь сказал cпасибо:
TAIFUN (03.10.2013)
 
  #2
Старый 21.07.2022, 14:11
michman
Пользователь
Досье
 
Аватар для michman
По умолчанию Re: Adriano Celentano - Quel Punto

Спасибо

michman вне форума  
Вверх
  #3
Старый 21.07.2022, 18:23
TAIFUN
Admin
Досье
 
Аватар для TAIFUN
По умолчанию Re: Adriano Celentano - Quel Punto

Один из самых интересных альбомов у Адриано Челентано, на мой взгляд.
__________________
FAQ по форуму
Правила форума
Mare liberum apertum - Море открыто для всех
Нет на земле живого существа столь жёсткого, крутого, адски злого, чтоб не могла хотя на час один в нём музыка свершить переворота.

TAIFUN вне форума  
Вверх
Похожие темы
Тема Автор Раздел Ответов Последнее сообщение
Альбом Adriano Celentano - Le Robe Che Ha Detto Adriano sergych Зарубежная Поп-Музыка 0 08.04.2009 20:36
Альбом Adriano Celentano - Unicamente Celentano sergych Зарубежная Поп-Музыка 0 27.10.2008 05:22
Альбом Adriano Celentano - Le Volte Che Celentano E Stato 1 sergych Зарубежная Поп-Музыка 0 15.06.2008 20:05
Альбом Adriano Celentano - Uh... Uh... sergych Зарубежная Поп-Музыка 0 14.06.2008 18:17
Adriano Celentano Tolich Видеоклипы 0 22.05.2008 17:31


Метки
1994 , adriano celentano , italo pop , pop , quel punto

Опции темы

Ваши права в разделе
Вы не можете создавать новые темы
Вы не можете отвечать в темах
Вы не можете прикреплять вложения
Вы не можете редактировать свои сообщения

Быстрый переход


Текущее время: 16:46. Часовой пояс GMT +3.

© 2008 - 2022 Taifun With Song
Powered by vBulletin® Version 3.8.10
Copyright ©2000 - 2022, vBulletin Solutions, Inc. Перевод: zCarot
При поддержке NIC.UA
0.20571 сек. | MySQL: 17