TAIFUN With Song - качественная и редкая музыка
Навигация
Russian Rock Альбомы рок-групп стран СНГ

А знаете ли Вы, что...
Почему исполнение песни «Happy Birthday to You» может быть незаконным?
«Известная песенка «Happy Birthday to You» по сей день находится под защитой авторских прав в США. Её можно бесплатно петь в обычном кругу семьи или друзей, но за коммерческое использование, например в фильме или поздравительной открытке, необходимо платить отчисления. Сейчас песня приносит ежегодно 2 миллиона долларов компании-владельцу прав на неё.»
 
Опции темы

  #1
Старый 07.10.2011, 10:34
PUPOKIN
Релизёр
Досье
 
Аватар для PUPOKIN
По умолчанию Пикник - Три судьбы


2011 - Пикник - Три судьбы




Исполнитель/Artist: Пикник
Альбом/Album: Три судьбы
Год/Year: 2011
Жанр/Genre: Russian Rock
Страна/Country: Russia
Формат/Format: MPEG Layer-3 (*.mp3)
Качество/Quality: CBR 320 kbps
Продолжительность/Length: 00:48:00
Источник/Source: Из интернета
Размер/Size: 104 MB


Треклист

01 Ой, мороз-мороз…
02 Полюшко-поле
03 Черный ворон
04 Романс "Сомнение"
05 Полюшко-поле (героическая версия)
06 Любо, братцы, любо
07 По долинам и по взгорьям
08 Песня о любви
09 Ой, да не вечер…
10 Течет река Волга (инструментальная версия)
11 Романс "Сомнение" (инструментальная версия)
[свернуть]

Скачать Пикник - Три судьбы

[Ссылки могут видеть только зарегистрированные и активированные пользователи.]
[Only registered and activated users can see links.]
[Ссылки могут видеть только зарегистрированные и активированные пользователи.]
[Only registered and activated users can see links.]
[свернуть]
Release info RInfo

Новый диск группы «Пикник» «Три судьбы» . В свой юбилейный год музыканты записали альбом, который может по праву считаться уникальным в музыкальной дискографии коллектива. Его необычность уже в том, что все произведения, записанные на пластинке, не являются песнями группы. Основу альбома составили прочувствованные заново русские народные песни, песни времен гражданской войны, а также песни русских и советских композиторов.

Кроме того, звучание альбома выдержано в акустических тонах, что тоже не очень характерно для творчества группы Пикник. Но неизменным остается одно - магия голоса Эдмунда Шклярского и завораживающие аранжировки, погружающие слушателя в многогранный мир человеческих переживаний.


Последний раз редактировалось sergych, 07.02.2012 в 21:27. Причина: убрал битую ссылку
PUPOKIN вне форума  
Вверх
2 пользователя(ей) сказали cпасибо:
sergych (18.11.2011), TAIFUN (23.07.2022)
 
  #2
Старый 07.02.2012, 22:39
sergych
Координатор
Досье
 
Аватар для sergych
Релиз Re: Пикник - Три судьбы


2011 - Пикник - Три судьбы




Исполнитель/Artist: Пикник
Альбом/Album: Три судьбы
Год/Year: 2011
Жанр/Genre: Folk, Rock
Страна/Country: Россия
Рекорд-лейбл/Record label: Мистерия звука
Формат/Format: Free Lossless Audio Codec (*.flac)
Качество/Quality: Lossless
Тип рипа/RIP Type: tracks+.cue
Продолжительность/Length: 00:48:29
Источник/Source: Собственный рип
Размер/Size: 304.9 MB

Сканы в комплекте

Треклист

01 - Ой, мороз-мороз...
02 - Полюшко-поле
03 - Черный ворон
04 - Романс ''Сомнение''
05 - Полюшко-поле (heroic version)
06 - Любо, братцы, любо
07 - По долинам и по взгорьям
08 - Песня о любви (instrumental version)
09 - Ой, да не вечер...
10 - Течет река Волга (instrumental version)
11 - Романс ''Сомнение'' (instrumental version)
[свернуть]

youtube.com

[свернуть]

Исполнители/Performers

Эдмунд Шклярский
Леонид Кирнос
Марат Корчемный
Станислав Шклярский
[свернуть]

EAC лог

Exact Audio Copy V1.0 beta 3 from 29. August 2011

EAC extraction logfile from 7. February 2012, 22:32

Пикник / Три судьбы

Used drive : _NEC DVD_RW ND-4550A Adapter: 1 ID: 0

Read mode : Burst

Read offset correction : 0
Overread into Lead-In and Lead-Out : No
Fill up missing offset samples with silence : Yes
Delete leading and trailing silent blocks : No
Null samples used in CRC calculations : Yes
Used interface : Native Win32 interface for Win NT & 2000
Gap handling : Appended to previous track

Used output format : User Defined Encoder
Selected bitrate : 896 kBit/s
Quality : High
Add ID3 tag : Yes
Command line compressor : C:\ProgMusic\Exact Audio Copy\Flac\flac.exe
Additional command line options : -6 -V -T "ARTIST=%artist%" -T "TITLE=%title%" -T "ALBUM=%albumtitle%" -T "DATE=%year%" -T "TRACKNUMBER=%tracknr%" -T "GENRE=%genre%" -T "COMMENT=%comment%" -T "BAND=%albuminterpret%" -T "COMPOSER=%composer%" %haslyrics%--tag-from-file=LYRICS="%lyricsfile%"%haslyrics% -T "DISCNUMBER=%cdnumber%" -T "TOTALDISCS=%totalcds%" -T "TOTALTRACKS=%numtracks%" %hascover%--picture="%coverfile%"%hascover% %source% -o %dest%


TOC of the extracted CD

Track | Start | Length | Start sector | End sector
---------------------------------------------------------
1 | 0:00.00 | 3:47.07 | 0 | 17031
2 | 3:47.07 | 4:37.02 | 17032 | 37808
3 | 8:24.09 | 4:05.05 | 37809 | 56188
4 | 12:29.14 | 6:01.08 | 56189 | 83271
5 | 18:30.22 | 3:43.23 | 83272 | 100019
6 | 22:13.45 | 4:01.26 | 100020 | 118120
7 | 26:14.71 | 4:01.02 | 118121 | 136197
8 | 30:15.73 | 4:20.28 | 136198 | 155725
9 | 34:36.26 | 4:33.17 | 155726 | 176217
10 | 39:09.43 | 5:54.63 | 176218 | 202830
11 | 45:04.31 | 3:24.61 | 202831 | 218191


Track 1

Filename C:\Пикник\2011 - Три судьбы\01 - Ой, мороз-мороз....wav

Pre-gap length 0:00:02.00

Timing problem 0:00:10
Timing problem 0:00:25
Timing problem 0:00:45

Peak level 96.6 %
Extraction speed 4.2 X
Copy CRC 851B2839
Copy finished

Track 2

Filename C:\Пикник\2011 - Три судьбы\02 - Полюшко-поле.wav

Peak level 96.5 %
Extraction speed 4.8 X
Copy CRC 3CA67434
Copy OK

Track 3

Filename C:\Пикник\2011 - Три судьбы\03 - Черный ворон.wav

Peak level 96.6 %
Extraction speed 5.3 X
Copy CRC 18D69718
Copy OK

Track 4

Filename C:\Пикник\2011 - Три судьбы\04 - Романс ''Сомнение''.wav

Peak level 96.5 %
Extraction speed 5.8 X
Copy CRC D074327B
Copy OK

Track 5

Filename C:\Пикник\2011 - Три судьбы\05 - Полюшко-поле (heroic version).wav

Peak level 96.6 %
Extraction speed 6.3 X
Copy CRC 28364871
Copy OK

Track 6

Filename C:\Пикник\2011 - Три судьбы\06 - Любо, братцы, любо.wav

Peak level 96.6 %
Extraction speed 6.6 X
Copy CRC 3369F732
Copy OK

Track 7

Filename C:\Пикник\2011 - Три судьбы\07 - По долинам и по взгорьям.wav

Peak level 96.5 %
Extraction speed 7.0 X
Copy CRC A09D6DB6
Copy OK

Track 8

Filename C:\Пикник\2011 - Три судьбы\08 - Песня о любви (instrumental version).wav

Peak level 91.0 %
Extraction speed 7.3 X
Copy CRC 1761CDE0
Copy OK

Track 9

Filename C:\Пикник\2011 - Три судьбы\09 - Ой, да не вечер....wav

Peak level 96.6 %
Extraction speed 7.7 X
Copy CRC 2718C781
Copy OK

Track 10

Filename C:\Пикник\2011 - Три судьбы\10 - Течет река Волга (instrumental version).wav

Peak level 96.6 %
Extraction speed 8.1 X
Copy CRC 1393B197
Copy OK

Track 11

Filename C:\Пикник\2011 - Три судьбы\11 - Романс ''Сомнение'' (instrumental version).wav

Peak level 98.1 %
Extraction speed 8.4 X
Copy CRC 66A4D773
Copy OK

No errors occurred

End of status report
[свернуть]

Файл CUE

REM GENRE Folk
REM DATE 2011
REM DISCID 870B5D0B
REM COMMENT "ExactAudioCopy v1.0b3"
PERFORMER "Пикник"
TITLE "Три судьбы"
FILE "01 - Ой, мороз-мороз....wav" WAVE
TRACK 01 AUDIO
TITLE "Ой, мороз-мороз..."
PERFORMER "Пикник"
FLAGS DCP
INDEX 01 00:00:00
FILE "02 - Полюшко-поле.wav" WAVE
TRACK 02 AUDIO
TITLE "Полюшко-поле"
PERFORMER "Пикник"
FLAGS DCP
INDEX 01 00:00:00
FILE "03 - Черный ворон.wav" WAVE
TRACK 03 AUDIO
TITLE "Черный ворон"
PERFORMER "Пикник"
FLAGS DCP
INDEX 01 00:00:00
FILE "04 - Романс ''Сомнение''.wav" WAVE
TRACK 04 AUDIO
TITLE "Романс ''Сомнение''"
PERFORMER "Пикник"
FLAGS DCP
INDEX 01 00:00:00
FILE "05 - Полюшко-поле (heroic version).wav" WAVE
TRACK 05 AUDIO
TITLE "Полюшко-поле (heroic version)"
PERFORMER "Пикник"
FLAGS DCP
INDEX 01 00:00:00
FILE "06 - Любо, братцы, любо.wav" WAVE
TRACK 06 AUDIO
TITLE "Любо, братцы, любо"
PERFORMER "Пикник"
FLAGS DCP
INDEX 01 00:00:00
FILE "07 - По долинам и по взгорьям.wav" WAVE
TRACK 07 AUDIO
TITLE "По долинам и по взгорьям"
PERFORMER "Пикник"
FLAGS DCP
INDEX 01 00:00:00
FILE "08 - Песня о любви (instrumental version).wav" WAVE
TRACK 08 AUDIO
TITLE "Песня о любви (instrumental version)"
PERFORMER "Пикник"
FLAGS DCP
INDEX 01 00:00:00
FILE "09 - Ой, да не вечер....wav" WAVE
TRACK 09 AUDIO
TITLE "Ой, да не вечер..."
PERFORMER "Пикник"
FLAGS DCP
INDEX 01 00:00:00
FILE "10 - Течет река Волга (instrumental version).wav" WAVE
TRACK 10 AUDIO
TITLE "Течет река Волга (instrumental version)"
PERFORMER "Пикник"
FLAGS DCP
INDEX 01 00:00:00
FILE "11 - Романс ''Сомнение'' (instrumental version).wav" WAVE
TRACK 11 AUDIO
TITLE "Романс ''Сомнение'' (instrumental version)"
PERFORMER "Пикник"
FLAGS DCP
INDEX 01 00:00:00
[свернуть]

Лог проверки качества

AUDIOCHECKER v2.0 beta (build 457) - by Dester - [Ссылки могут видеть только зарегистрированные и активированные пользователи.]
[Only registered and activated users can see links.]
~~~~~~~~~~~~~~~~~~~~~~~~~~~~~~~~~~
-=== НЕ РЕДАКТИРУЙТЕ ЭТОТ ФАЙЛ! ===-

Путь: ...\2011 - Три судьбы

01 -=- 01 - Ой, мороз-мороз....flac -=- CDDA (100%)
02 -=- 02 - Полюшко-поле.flac -=- CDDA (99%)
03 -=- 03 - Черный ворон.flac -=- CDDA (100%)
04 -=- 04 - Романс ''Сомнение''.flac -=- CDDA (100%)
05 -=- 05 - Полюшко-поле (heroic version).flac -=- CDDA (100%)
06 -=- 06 - Любо, братцы, любо.flac -=- CDDA (100%)
07 -=- 07 - По долинам и по взгорьям.flac -=- CDDA (99%)
08 -=- 08 - Песня о любви (instrumental version).flac -=- CDDA (100%)
09 -=- 09 - Ой, да не вечер....flac -=- CDDA (100%)
10 -=- 10 - Течет река Волга (instrumental version).flac -=- CDDA (100%)
11 -=- 11 - Романс ''Сомнение'' (instrumental version).flac -=- CDDA (100%)

Сводка 99,82% CDDA

113433060
[свернуть]

Скачать Пикник - Три судьбы

[Ссылки могут видеть только зарегистрированные и активированные пользователи.]
[Only registered and activated users can see links.]

password: sergych
[свернуть]
My opinion of release: 10/10
__________________
TAIFUN.Wings of Soul


Последний раз редактировалось sergych, 05.07.2014 в 20:18. Причина: перезаливка
sergych вне форума  
Вверх
Пользователь сказал cпасибо:
TAIFUN (23.07.2022)
  #3
Старый 22.07.2022, 15:17
SoAnVi
Пользователь
Досье
 
Аватар для SoAnVi
По умолчанию Re: Пикник - Три судьбы

большое спасибо. давно ищу не в мр3

SoAnVi вне форума  
Вверх
Похожие темы
Тема Автор Раздел Ответов Последнее сообщение
Релиз Давид Дивад - Река судьбы PUPOKIN Шансон 0 01.10.2010 10:08
Релиз Руслан Казанцев – На перекрестке судьбы PUPOKIN Шансон 0 22.07.2010 10:18
Саундтрек Наша Russia - Яйца судьбы PUPOKIN Саундтреки 0 22.02.2010 10:59
Релиз Nostal-g - Краски судьбы PUPOKIN Русский, украинский 0 10.03.2009 11:20
Ирония судьбы. Продолжение SERAF Наше кино 0 20.06.2008 19:02


Метки
2011 , russian rock , пикник , три судьбы

Опции темы

Ваши права в разделе
Вы не можете создавать новые темы
Вы не можете отвечать в темах
Вы не можете прикреплять вложения
Вы не можете редактировать свои сообщения

Быстрый переход


Текущее время: 17:50. Часовой пояс GMT +3.

© 2008 - 2022 Taifun With Song
Powered by vBulletin® Version 3.8.10
Copyright ©2000 - 2022, vBulletin Solutions, Inc. Перевод: zCarot
При поддержке NIC.UA
0.22066 сек. | MySQL: 17