TAIFUN With Song - качественная и редкая музыка
Навигация
Heavy Metal Выражение "Heavy Metall" впервые появилось в романе известного американского писателя Уильяма Берроуза "Naked Lunch" (1959), где он использует этот термин для описания резкой, непривычной музыки. Элемент импровизации в истинном "металле" практически сведен к нулю, точнее - он отсутствует в традиционном смысле этого слова, однако опытные "металлические" группы (Metallica, Slayer, Megadeth) часто вводят в свои композиции очень сложные изменения ритма, и у неподготовленного слушателя может возникнуть ощущение какофонии, хотя речь идет о ритмической импровизации, по духу очень близкой той, которую исследуют серьезные современные композиторы.

А знаете ли Вы, что...
Зачем менеджер Элвиса Пресли распространял значки с надписью «I hate Elvis»?
«Американский продюсер Том Паркер распознал экстраординарный талант Элвиса Пресли, когда тот был ещё малоизвестным и несовершеннолетним, и во многом способствовал его продвижению и обретению статуса суперзвезды. Для максимизации доходов Элвиса Паркер применил много нестандартных методов. Например, он выпустил большим тиражом значки с надписью «I hate Elvis» («Я ненавижу Элвиса»), чтобы извлечь деньги из тех, кто никогда бы не купил его пластинки.»
 
Опции темы

  #1
Старый 23.12.2009, 12:03
Stanislav1989
Координатор
Досье
 
Аватар для Stanislav1989
По умолчанию Dio - Dream Evil

1987 - Dream Evil



Исполнитель/Artist: Dio
Альбом/Album: Dream Evil
Год/Year: 1987
Страна/Country: USA
Жанр/Genre: Heavy Metal
Формат/Format: mp3
Качество/Quality: 320 kbps Stereo
Размер/Size: 100.88 MB
Продолжительность/Length: 00:44:04


Треклист

1. Night People
2. Dream Evil
3. Sunset Superman
4. All The Fools Sailed Away
5. Naked In The Rain
6. Overlove
7. I Could Have Been A Dreamer
8. Faces In The Window
9. When A Woman Cries
[свернуть]

Скачать

[Ссылки могут видеть только зарегистрированные и активированные пользователи.]
[Only registered and activated users can see links.]
[Ссылки могут видеть только зарегистрированные и активированные пользователи.]
[Only registered and activated users can see links.]
[свернуть]


Последний раз редактировалось TAIFUN, 05.10.2014 в 03:46. Причина: Перезалита обложка
Вверх
Пользователь сказал cпасибо:
sergych (05.10.2014)
 
  #2
Старый 05.10.2014, 03:46
TAIFUN
Admin
Досье
 
Аватар для TAIFUN
По умолчанию Re: Dio - Dream Evil


1987 - Dio - Dream Evil




Исполнитель/Artist: Dio
Альбом/Album: Dream Evil
Год/Year: 1987
Жанр/Genre: Heavy Metal
Страна/Country: Германия
Рекорд-лейбл/Record label: PolyGram Internatinal Music B.V. / VERTIGO / GEMA
Номер в каталоге/Catalogue #: 832 530-2
Формат/Format: Free Lossless Audio Codec (*.flac)
Качество/Quality: Lossless
Тип рипа/RIP Type: image+.cue
Продолжительность/Length: 00:44:02
Источник/Source: Из интернета
Размер/Size: 270 MB

Сканы в комплекте

Треклист

01. Night People
02. Dream Evil
03. Sunset Superman
04. All The Fools Sailed Away
05. Naked In The Rain
06. Overlove
07. I Could Have Been A Dreamer
08. Faces In The Window
09. When A Woman Cries
[свернуть]

youtube.com

[свернуть]

Исполнители/Performers

Ronnie James Dio: Vocals
Vinny Appice: Drums
Jimmy Bain: Bass
Craig Goldie: Guitars
Claude Schnell: Keyboards
All lyrics and melodies by Ronnie James Dio
[свернуть]

EAC лог

Exact Audio Copy V0.99 prebeta 5 from 4. May 2009

Отчёт EAC об извлечении, выполненном 21. сентября 2009, 14:32

Dio / Dream Evil

Дисковод: HL-DT-STDVDRAM GH20NS10 Adapter: 3 ID: 0

Режим чтения : Достоверность
Использование точного потока : Да
Отключение кэша аудио : Да
Использование указателей C2 : Нет

Коррекция смещения при чтении : 667
Способность читать области Lead-in и Lead-out : Нет
Заполнение пропущенных сэмплов тишиной : Да
Удаление блоков с тишиной в начале и конце : Нет
При вычислениях CRC использовались нулевые сэмплы : Да
Интерфейс : Встроенный Win32-интерфейс для Win NT/2000

Выходной формат : Пользовательский кодировщик
Выбранный битрейт : 768 kBit/s
Качество : Высокий
Добавление ID3-тэга : Нет
Утилита сжатия : C:\Program Files\Exact Audio Copy\FLAC\FLAC.EXE
Дополнительные параметры : -6 -V -T "ARTIST=%a" -T "TITLE=%t" -T "ALBUM=%g" -T "DATE=%y" -T "TRACKNUMBER=%n" -T "GENRE=%m" -T "COMMENT=%e" %s -o %d


TOC извлечённого CD

Трек | Старт | Длительность | Начальный сектор | Конечный сектор
---------------------------------------------------------------------
1 | 0:00.33 | 4:08.67 | 33 | 18699
2 | 4:09.25 | 4:25.38 | 18700 | 38612
3 | 8:34.63 | 5:48.62 | 38613 | 64774
4 | 14:23.50 | 7:14.63 | 64775 | 97387
5 | 21:38.38 | 5:13.37 | 97388 | 120899
6 | 26:52.00 | 3:47.38 | 120900 | 137962
7 | 30:39.38 | 4:47.50 | 137963 | 159537
8 | 35:27.13 | 3:52.25 | 159538 | 176962
9 | 39:19.38 | 4:42.25 | 176963 | 198137


Характеристики диапазона извлечения и сообщения об ошибках

Выбранный диапазон

Имя файла C:\Documents and Settings\CD-ROMA\Рабочий стол\Dio - Dream Evil - 1987. FLAC (image+.cue), lossless\Dio - Dream Evil.wav

Пиковый уровень 99.0 %
Качество диапазона 100.0 %
CRC теста 86076E84
CRC копии 86076E84
Копирование... OK

Ошибок не произошло


AccurateRip: сводка

Трек 1 точное извлечение (доверие 28) [A3CBF790]
Трек 2 точное извлечение (доверие 28) [C9C33FB2]
Трек 3 точное извлечение (доверие 28) [740182C4]
Трек 4 точное извлечение (доверие 28) [66962A22]
Трек 5 точное извлечение (доверие 28) [972078A4]
Трек 6 точное извлечение (доверие 28) [472E3B6D]
Трек 7 точное извлечение (доверие 28) [BB8A6016]
Трек 8 точное извлечение (доверие 28) [D4F04CE0]
Трек 9 точное извлечение (доверие 28) [153BDE0C]

Все треки извлечены точно

Конец отчёта
[свернуть]

Файл CUE

REM GENRE "Hard Rock"
REM DATE 1987
REM DISCID 610A5109
REM COMMENT "ExactAudioCopy v0.99pb5"
PERFORMER "Dio"
TITLE "Dream Evil"
FILE "Dio - Dream Evil.flac" WAVE
TRACK 01 AUDIO
TITLE "Night People"
PERFORMER "Dio"
INDEX 00 00:00:00
INDEX 01 00:00:33
TRACK 02 AUDIO
TITLE "Dream Evil"
PERFORMER "Dio"
INDEX 00 04:06:63
INDEX 01 04:09:25
TRACK 03 AUDIO
TITLE "Sunset Superman"
PERFORMER "Dio"
INDEX 00 08:33:13
INDEX 01 08:34:63
TRACK 04 AUDIO
TITLE "All The Fools Sailed Away"
PERFORMER "Dio"
INDEX 00 14:20:50
INDEX 01 14:23:50
TRACK 05 AUDIO
TITLE "Naked In The Rain"
PERFORMER "Dio"
INDEX 00 21:35:38
INDEX 01 21:38:38
TRACK 06 AUDIO
TITLE "Overlove"
PERFORMER "Dio"
INDEX 00 26:47:63
INDEX 01 26:52:00
TRACK 07 AUDIO
TITLE "I Could Have Been A Dreamer"
PERFORMER "Dio"
INDEX 00 30:36:38
INDEX 01 30:39:38
TRACK 08 AUDIO
TITLE "Faces In The Window"
PERFORMER "Dio"
INDEX 00 35:23:13
INDEX 01 35:27:13
TRACK 09 AUDIO
TITLE "When A Woman Cries"
PERFORMER "Dio"
INDEX 00 39:17:25
INDEX 01 39:19:38
[свернуть]

Скачать Dio - Dream Evil

[Ссылки могут видеть только зарегистрированные и активированные пользователи.]
[Only registered and activated users can see links.]
[свернуть]
My opinion of release: 9/10
__________________
FAQ по форуму
Правила форума
Mare liberum apertum - Море открыто для всех
Нет на земле живого существа столь жёсткого, крутого, адски злого, чтоб не могла хотя на час один в нём музыка свершить переворота.


Последний раз редактировалось TAIFUN, 05.10.2014 в 08:05.
Вверх
Пользователь сказал cпасибо:
sergych (05.10.2014)
Похожие темы
Тема Автор Раздел Ответов Последнее сообщение
The Dream – Dream Killers PUPOKIN Зарубежный 0 27.12.2010 10:07
Релиз Stan Bush - Dream The Dream PUPOKIN Rock 0 18.08.2010 09:45
Dream Evil - In The Night PUPOKIN Power Metal 0 25.01.2010 10:03
Pek - Preaching Evil ReAl Black Metal 0 11.08.2008 18:09
Dream Evil - Dragonslayer LUСIAN Power Metal 0 27.04.2008 00:56


Метки
1987 , dio , dream evil , heavy metal

Опции темы

Ваши права в разделе
Вы не можете создавать новые темы
Вы не можете отвечать в темах
Вы не можете прикреплять вложения
Вы не можете редактировать свои сообщения

Быстрый переход


Текущее время: 00:09. Часовой пояс GMT +3.

© 2008 - 2022 Taifun With Song
Powered by vBulletin® Version 3.8.10
Copyright ©2000 - 2022, vBulletin Solutions, Inc. Перевод: zCarot
При поддержке NIC.UA
0.21066 сек. | MySQL: 17