TAIFUN With Song
Навигация
Вернуться   TAIFUN With Song > Music (обменник) > Rock > Pop Rock
Расширенный поиск
Pop Rock Поп-рок — жанр музыки, объединяющий элементы поп-музыки и рок-музыки. Песни характеризуются простой структурой, запоминающимися мелодиями, повторением музыкальных фраз (от попа), использованием в качестве основных инструментов электрогитар и ударных и агрессивным настроением (от рока).

А знаете ли Вы, что...
Какой знаменитый музыкант играл в метро, и люди почти не проявили интерес к его музыке?
«Один из лучших скрипачей американец Джошуа Белл 12 января 2007 года согласился принять участие в эксперименте — утром на протяжении 45 минут он играл в вестибюле станции метро под видом обычного уличного музыканта. Из тысячи прошедших мимо людей только семь заинтересовались музыкой.»
 
Опции темы

  #1
Старый 14.01.2019, 12:22
sergych
Координатор
Досье
 
Аватар для sergych
Релиз Chris Isaak - First Comes the Night


2015 - Chris Isaak - First Comes the Night




Исполнитель/Artist: Chris Isaak
Альбом/Album: First Comes the Night
Год/Year: 2015
Жанр/Genre: Rock'n'roll, rockabilly, roots rock
Страна/Country: Австралия
Рекорд-лейбл/Record label: Wiked Game Record / Universal Music
Номер в каталоге/Catalogue #: 47581839
Формат/Format: Free Lossless Audio Codec (*.flac)
Качество/Quality: Lossless
Тип рипа/RIP Type: image+.cue
Продолжительность/Length: 00:41:44
Источник/Source: Собственный рип
Размер/Size: 323.1 MB

Сканы в комплекте

Треклист

01. First Comes the Night [0:04:18.22]
02. Please Don't Call [0:05:18.36]
03. Perfect Lover [0:03:33.53]
04. Down In Flames [0:02:54.58]
05. Reverie [0:03:56.73]
06. Baby What You Want Me to Do [0:03:00.37]
07. Kiss Me like a Stranger [0:03:22.39]
08. Dry Your Eyes [0:04:32.60]
09. Don't Break My Heart [0:02:33.57]
10. Running Down the Road [0:02:40.32]
11. Insects [0:02:53.52]
12. The Way Things Really Are [0:02:38.34]
[свернуть]

Превью на YouTube

[свернуть]

Исполнители/Performers

Chris Isaak - Lead Vocals, Guitar
Kenney Dale Johnson - Drums, Vocals
Rowland Salley - Bass, Vocals
Hershel Yatovitz - Guitar
Scott Plunkett - Keys, Piano, Organ
Rafael Padilla - Percussion
[свернуть]

EAC лог

Exact Audio Copy V1.3 from 2. September 2016

EAC extraction logfile from 7. January 2019, 14:26

Chris Isaak / First Comes the Night

Used drive : PIONEER DVD-RW DVR-220L Adapter: 1 ID: 0

Read mode : Secure
Utilize accurate stream : Yes
Defeat audio cache : Yes
Make use of C2 pointers : No

Read offset correction : 6
Overread into Lead-In and Lead-Out : No
Fill up missing offset samples with silence : Yes
Delete leading and trailing silent blocks : No
Null samples used in CRC calculations : Yes
Used interface : Installed external ASPI interface

Used output format : User Defined Encoder
Selected bitrate : 1024 kBit/s
Quality : High
Add ID3 tag : No
Command line compressor : C:\Program Files (x86)\Exact Audio Copy\Flac\flac.exe
Additional command line options : -6 -V -T "ARTIST=%artist%" -T "TITLE=%title%" -T "ALBUM=%albumtitle%" -T "DATE=%year%" -T "TRACKNUMBER=%tracknr%" -T "GENRE=%genre%" -T "COMMENT=%comment%" -T "BAND=%albuminterpret%" -T "ALBUMARTIST=%albuminterpret%" -T "COMPOSER=%composer%" %haslyrics%--tag-from-file=LYRICS="%lyricsfile%"%haslyrics% -T "DISCNUMBER=%cdnumber%" -T "TOTALDISCS=%totalcds%" -T "TOTALTRACKS=%numtracks%" %hascover%--picture="%coverfile%"%hascover% %source% -o %dest%


TOC of the extracted CD

Track | Start | Length | Start sector | End sector
---------------------------------------------------------
1 | 0:00.00 | 4:18.22 | 0 | 19371
2 | 4:18.22 | 5:18.36 | 19372 | 43257
3 | 9:36.58 | 3:33.53 | 43258 | 59285
4 | 13:10.36 | 2:54.58 | 59286 | 72393
5 | 16:05.19 | 3:56.73 | 72394 | 90166
6 | 20:02.17 | 3:00.37 | 90167 | 103703
7 | 23:02.54 | 3:22.39 | 103704 | 118892
8 | 26:25.18 | 4:32.60 | 118893 | 139352
9 | 30:58.03 | 2:33.57 | 139353 | 150884
10 | 33:31.60 | 2:40.32 | 150885 | 162916
11 | 36:12.17 | 2:53.52 | 162917 | 175943
12 | 39:05.69 | 2:38.34 | 175944 | 187827


Range status and errors

Selected range

Filename C:\mm\Chris Isaak\2015 - First Comes The Night [47581839]\Chris Isaak - First Comes the Night.wav

Peak level 99.9 %
Extraction speed 4.1 X
Range quality 100.0 %
Test CRC DA97F9E6
Copy CRC DA97F9E6
Copy OK

No errors occurred


AccurateRip summary

Track 1 accurately ripped (confidence 41) [8A182301] (AR v2)
Track 2 accurately ripped (confidence 42) [FB947F37] (AR v2)
Track 3 accurately ripped (confidence 42) [C6977F11] (AR v2)
Track 4 accurately ripped (confidence 43) [2D38862F] (AR v2)
Track 5 accurately ripped (confidence 43) [D4DFEED9] (AR v2)
Track 6 accurately ripped (confidence 43) [70F4D225] (AR v2)
Track 7 accurately ripped (confidence 43) [781851FD] (AR v2)
Track 8 accurately ripped (confidence 43) [5B0079E5] (AR v2)
Track 9 accurately ripped (confidence 43) [F6E59AE6] (AR v2)
Track 10 accurately ripped (confidence 42) [883C8A82] (AR v2)
Track 11 accurately ripped (confidence 42) [034E4D9E] (AR v2)
Track 12 accurately ripped (confidence 43) [D3E283C3] (AR v2)

All tracks accurately ripped

End of status report
[свернуть]

Файл CUE

REM GENRE Rock
REM DATE 2015
REM DISCID A509C80C
REM COMMENT "ExactAudioCopy v1.3"
PERFORMER "Chris Isaak"
TITLE "First Comes the Night"
REM COMPOSER ""
FILE "Chris Isaak - First Comes the Night.flac" WAVE
TRACK 01 AUDIO
TITLE "First Comes the Night"
PERFORMER "Chris Isaak"
REM COMPOSER ""
INDEX 01 00:00:00
TRACK 02 AUDIO
TITLE "Please Don't Call"
PERFORMER "Chris Isaak"
REM COMPOSER ""
INDEX 00 04:17:56
INDEX 01 04:18:22
TRACK 03 AUDIO
TITLE "Perfect Lover"
PERFORMER "Chris Isaak"
REM COMPOSER ""
INDEX 00 09:35:67
INDEX 01 09:36:58
TRACK 04 AUDIO
TITLE "Down In Flames"
PERFORMER "Chris Isaak"
REM COMPOSER ""
INDEX 00 13:09:49
INDEX 01 13:10:36
TRACK 05 AUDIO
TITLE "Reverie"
PERFORMER "Chris Isaak"
REM COMPOSER ""
INDEX 00 16:04:49
INDEX 01 16:05:19
TRACK 06 AUDIO
TITLE "Baby What You Want Me to Do"
PERFORMER "Chris Isaak"
REM COMPOSER ""
INDEX 00 20:01:44
INDEX 01 20:02:17
TRACK 07 AUDIO
TITLE "Kiss Me like a Stranger"
PERFORMER "Chris Isaak"
REM COMPOSER ""
INDEX 00 23:01:45
INDEX 01 23:02:54
TRACK 08 AUDIO
TITLE "Dry Your Eyes"
PERFORMER "Chris Isaak"
REM COMPOSER ""
INDEX 00 26:24:26
INDEX 01 26:25:18
TRACK 09 AUDIO
TITLE "Don't Break My Heart"
PERFORMER "Chris Isaak"
REM COMPOSER ""
INDEX 00 30:57:23
INDEX 01 30:58:03
TRACK 10 AUDIO
TITLE "Running Down the Road"
PERFORMER "Chris Isaak"
REM COMPOSER ""
INDEX 00 33:31:09
INDEX 01 33:31:60
TRACK 11 AUDIO
TITLE "Insects"
PERFORMER "Chris Isaak"
REM COMPOSER ""
INDEX 00 36:11:10
INDEX 01 36:12:17
TRACK 12 AUDIO
TITLE "The Way Things Really Are"
PERFORMER "Chris Isaak"
REM COMPOSER ""
INDEX 00 39:04:40
INDEX 01 39:05:69
[свернуть]

Лог проверки качества

AUDIOCHECKER v2.0 beta (build 457) - by Dester - [Ссылки могут видеть только зарегистрированные и активированные пользователи.]
[Only registered and activated users can see links.]
~~~~~~~~~~~~~~~~~~~~~~~~~~~~~~~~~~
-=== НЕ РЕДАКТИРУЙТЕ ЭТОТ ФАЙЛ! ===-

Путь: ...\2015 - First Comes The Night [47581839]

1 -=- Chris Isaak - First Comes the Night.flac -=- CDDA (100%)

34271268
[свернуть]

Спектр частот

[свернуть]

Скачать Chris Isaak - First Comes the Night

[Ссылки могут видеть только зарегистрированные и активированные пользователи.]
[Only registered and activated users can see links.]

password: sergych
[свернуть]

Контрольная сумма (хеш-сумма) архива

MD5: 7a43e0546ee75f24b2b7e49dfbc8813f
[свернуть]
My opinion of release: 10/10
__________________
TAIFUN.Wings of Soul

Вверх
3 пользователя(ей) сказали cпасибо:
Показать список поблагодаривших
Похожие темы
Тема Автор Раздел Ответов Последнее сообщение
Альбом Chris Isaak - Heart Shaped World sergych Pop Rock 3 17.01.2017 23:55
Альбом Chris Isaak - San Francisco Days sergych Pop Rock 0 09.05.2014 19:26
Альбом Chris Isaak - Always Got Tonight sergych Pop Rock 0 05.05.2014 23:18
Альбом Chris Isaak - Forever Blue sergych Зарубежная Поп-Музыка 0 01.12.2013 18:34
Релиз Chris Isaak - Mr. Lucky PUPOKIN Зарубежная Поп-Музыка 0 21.04.2009 17:37


Метки
2015 , chris isaak , first comes the night , rock'n'roll , rockabilly , roots rock

Опции темы

Ваши права в разделе
Вы не можете создавать новые темы
Вы не можете отвечать в темах
Вы не можете прикреплять вложения
Вы не можете редактировать свои сообщения

Быстрый переход



Текущее время: 01:10. Часовой пояс GMT +3.
Powered by vBulletin® Version 3.8.10
Copyright ©2000 - 2019, vBulletin Solutions, Inc. Перевод: zCarot
© 2008 - 2019 Taifun With Song
Яндекс.Метрика