TAIFUN With Song
Навигация
Вернуться   TAIFUN With Song > Music (обменник) > POP > Зарубежная Поп-Музыка
Расширенный поиск
А знаете ли Вы, что...
Какова самая низкая нота, которую может взять человек?
«Американский певец Тим Стормс обладает самым широким в мире вокальным диапазоном. Ещё один зафиксированный рекорд, принадлежащий Стормсу — самая низкая нота, взятая человеком. Эта нота частотой 0,189 Гц — соль на восемь октав ниже, чем самая низкая соль на фортепиано. Данный звук очень далеко отстоит от порога человеческого восприятия (для обычного человека — 16 Гц), а рекорд фиксировался специальными акустическими приборами.»
 
Опции темы

  #1
Старый 30.12.2018, 11:28
sergych
Координатор
Досье
 
Аватар для sergych
Релиз Whitney Houston - Love, Whitney


2001 - Whitney Houston - Love, Whitney




Исполнитель/Artist: Whitney Houston
Альбом/Album: Love, Whitney
Год/Year: 2001
Жанр/Genre: Pop, R&B, soul
Страна/Country: Австралия
Рекорд-лейбл/Record label: Arista / Sony Music
Номер в каталоге/Catalogue #: 74321910272
Формат/Format: Free Lossless Audio Codec (*.flac)
Качество/Quality: Lossless
Тип рипа/RIP Type: image+.cue
Продолжительность/Length: 01:13:26
Источник/Source: Собственный рип
Размер/Size: 539.3 MB

Сканы в комплекте

Треклист

01. Until You Come Back [0:04:55.47]
02. I Have Nothing [0:04:50.73]
03. Why Does It Hurt So Bad [0:04:39.62]
04. You Give Good Love [0:04:12.28]
05. All the Man That I Need [0:03:57.40]
06. Where Do Broken Hearts Go [0:04:38.05]
07. Just the Lonely Talking Again [0:05:33.15]
08. Exhale (Shoop Shoop) [0:03:24.60]
09. Miracle [0:05:46.60]
10. For the Love of You [0:05:35.40]
11. Saving All My Love for You [0:03:56.65]
12. Run to You [0:04:27.45]
13. I Believe in You and Me [0:03:55.27]
14. Didn't We Almost Have It All [0:04:38.70]
15. All at Once [0:04:29.15]
16. I Will Always Love You [0:04:23.60]
[свернуть]

Превью на YouTube

[свернуть]

EAC лог

Exact Audio Copy V1.3 from 2. September 2016

EAC extraction logfile from 29. December 2018, 12:35

Whitney Houston / Love, Whitney

Used drive : PIONEER DVD-RW DVR-220L Adapter: 1 ID: 0

Read mode : Secure
Utilize accurate stream : Yes
Defeat audio cache : Yes
Make use of C2 pointers : No

Read offset correction : 6
Overread into Lead-In and Lead-Out : No
Fill up missing offset samples with silence : Yes
Delete leading and trailing silent blocks : No
Null samples used in CRC calculations : Yes
Used interface : Installed external ASPI interface

Used output format : User Defined Encoder
Selected bitrate : 1024 kBit/s
Quality : High
Add ID3 tag : No
Command line compressor : C:\Program Files (x86)\Exact Audio Copy\Flac\flac.exe
Additional command line options : -6 -V -T "ARTIST=%artist%" -T "TITLE=%title%" -T "ALBUM=%albumtitle%" -T "DATE=%year%" -T "TRACKNUMBER=%tracknr%" -T "GENRE=%genre%" -T "COMMENT=%comment%" -T "BAND=%albuminterpret%" -T "ALBUMARTIST=%albuminterpret%" -T "COMPOSER=%composer%" %haslyrics%--tag-from-file=LYRICS="%lyricsfile%"%haslyrics% -T "DISCNUMBER=%cdnumber%" -T "TOTALDISCS=%totalcds%" -T "TOTALTRACKS=%numtracks%" %hascover%--picture="%coverfile%"%hascover% %source% -o %dest%


TOC of the extracted CD

Track | Start | Length | Start sector | End sector
---------------------------------------------------------
1 | 0:00.00 | 4:55.47 | 0 | 22171
2 | 4:55.47 | 4:50.73 | 22172 | 43994
3 | 9:46.45 | 4:39.62 | 43995 | 64981
4 | 14:26.32 | 4:12.28 | 64982 | 83909
5 | 18:38.60 | 3:57.40 | 83910 | 101724
6 | 22:36.25 | 4:38.05 | 101725 | 122579
7 | 27:14.30 | 5:33.15 | 122580 | 147569
8 | 32:47.45 | 3:24.60 | 147570 | 162929
9 | 36:12.30 | 5:46.60 | 162930 | 188939
10 | 41:59.15 | 5:35.40 | 188940 | 214104
11 | 47:34.55 | 3:56.65 | 214105 | 231869
12 | 51:31.45 | 4:27.45 | 231870 | 251939
13 | 55:59.15 | 3:55.27 | 251940 | 269591
14 | 59:54.42 | 4:38.70 | 269592 | 290511
15 | 64:33.37 | 4:29.15 | 290512 | 310701
16 | 69:02.52 | 4:23.60 | 310702 | 330486


Range status and errors

Selected range

Filename C:\mm\Whitney Houston\2001 - Love, Whitney [74321910272]\Whitney Houston - Love, Whitney.wav

Peak level 98.8 %
Extraction speed 8.4 X
Range quality 100.0 %
Test CRC E0507E08
Copy CRC E0507E08
Copy OK

No errors occurred


AccurateRip summary

Track 1 accurately ripped (confidence 52) [480BB341] (AR v2)
Track 2 accurately ripped (confidence 52) [D239899C] (AR v2)
Track 3 accurately ripped (confidence 49) [A1AB26B2] (AR v2)
Track 4 accurately ripped (confidence 52) [72A304D5] (AR v2)
Track 5 accurately ripped (confidence 52) [5230119A] (AR v2)
Track 6 accurately ripped (confidence 53) [52044C18] (AR v2)
Track 7 accurately ripped (confidence 51) [FB47F758] (AR v2)
Track 8 accurately ripped (confidence 52) [197E5096] (AR v2)
Track 9 accurately ripped (confidence 51) [F26AF0CC] (AR v2)
Track 10 accurately ripped (confidence 51) [3D4797FE] (AR v2)
Track 11 accurately ripped (confidence 52) [C99BF2DA] (AR v2)
Track 12 accurately ripped (confidence 51) [BAB03E7B] (AR v2)
Track 13 accurately ripped (confidence 52) [CBAC226D] (AR v2)
Track 14 accurately ripped (confidence 51) [0EB5075A] (AR v2)
Track 15 accurately ripped (confidence 52) [A0BFA6E5] (AR v2)
Track 16 accurately ripped (confidence 50) [3B2D99C1] (AR v2)

All tracks accurately ripped

End of status report
[свернуть]

Файл CUE

REM GENRE Pop
REM DATE 2001
REM DISCID 02113610
REM COMMENT "ExactAudioCopy v1.3"
PERFORMER "Whitney Houston"
TITLE "Love, Whitney"
REM COMPOSER ""
FILE "Whitney Houston - Love, Whitney.flac" WAVE
TRACK 01 AUDIO
TITLE "Until You Come Back"
PERFORMER "Whitney Houston"
REM COMPOSER ""
INDEX 01 00:00:00
TRACK 02 AUDIO
TITLE "I Have Nothing"
PERFORMER "Whitney Houston"
REM COMPOSER ""
INDEX 00 04:51:72
INDEX 01 04:55:47
TRACK 03 AUDIO
TITLE "Why Does It Hurt So Bad"
PERFORMER "Whitney Houston"
REM COMPOSER ""
INDEX 00 09:43:42
INDEX 01 09:46:45
TRACK 04 AUDIO
TITLE "You Give Good Love"
PERFORMER "Whitney Houston"
REM COMPOSER ""
INDEX 00 14:23:52
INDEX 01 14:26:32
TRACK 05 AUDIO
TITLE "All the Man That I Need"
PERFORMER "Whitney Houston"
REM COMPOSER ""
INDEX 00 18:35:52
INDEX 01 18:38:60
TRACK 06 AUDIO
TITLE "Where Do Broken Hearts Go"
PERFORMER "Whitney Houston"
REM COMPOSER ""
INDEX 00 22:33:55
INDEX 01 22:36:25
TRACK 07 AUDIO
TITLE "Just the Lonely Talking Again"
PERFORMER "Whitney Houston"
REM COMPOSER ""
INDEX 00 27:11:45
INDEX 01 27:14:30
TRACK 08 AUDIO
TITLE "Exhale (Shoop Shoop)"
PERFORMER "Whitney Houston"
REM COMPOSER ""
INDEX 01 32:47:45
TRACK 09 AUDIO
TITLE "Miracle"
PERFORMER "Whitney Houston"
REM COMPOSER ""
INDEX 00 36:09:02
INDEX 01 36:12:30
TRACK 10 AUDIO
TITLE "For the Love of You"
PERFORMER "Whitney Houston"
REM COMPOSER ""
INDEX 00 41:55:15
INDEX 01 41:59:15
TRACK 11 AUDIO
TITLE "Saving All My Love for You"
PERFORMER "Whitney Houston"
REM COMPOSER ""
INDEX 00 47:31:67
INDEX 01 47:34:55
TRACK 12 AUDIO
TITLE "Run to You"
PERFORMER "Whitney Houston"
REM COMPOSER ""
INDEX 00 51:29:52
INDEX 01 51:31:45
TRACK 13 AUDIO
TITLE "I Believe in You and Me"
PERFORMER "Whitney Houston"
REM COMPOSER ""
INDEX 00 55:57:00
INDEX 01 55:59:15
TRACK 14 AUDIO
TITLE "Didn't We Almost Have It All"
PERFORMER "Whitney Houston"
REM COMPOSER ""
INDEX 00 59:51:15
INDEX 01 59:54:42
TRACK 15 AUDIO
TITLE "All at Once"
PERFORMER "Whitney Houston"
REM COMPOSER ""
INDEX 00 64:29:17
INDEX 01 64:33:37
TRACK 16 AUDIO
TITLE "I Will Always Love You"
PERFORMER "Whitney Houston"
REM COMPOSER ""
INDEX 00 68:59:32
INDEX 01 69:02:52
[свернуть]

Лог проверки качества

AUDIOCHECKER v2.0 beta (build 457) - by Dester - [Ссылки могут видеть только зарегистрированные и активированные пользователи.]
[Only registered and activated users can see links.]
~~~~~~~~~~~~~~~~~~~~~~~~~~~~~~~~~~
-=== НЕ РЕДАКТИРУЙТЕ ЭТОТ ФАЙЛ! ===-

Путь: ...\2001 - Love, Whitney [74321910272]

1 -=- Whitney Houston - Love, Whitney.flac -=- CDDA (100%)

210692196
[свернуть]

Спектр частот

[свернуть]

Скачать Whitney Houston - Love, Whitney

[Ссылки могут видеть только зарегистрированные и активированные пользователи.]
[Only registered and activated users can see links.]

password: sergych
[свернуть]

Контрольная сумма (хеш-сумма) архива

MD5: 87a266370a4edc3fdd6b03b7d2772a59
[свернуть]
My opinion of release: 10/10
__________________
TAIFUN.Wings of Soul

Вверх
3 пользователя(ей) сказали cпасибо:
Показать список поблагодаривших
  #2
Старый 31.12.2018, 11:50
swint68
Меломан
Досье
 
Аватар для swint68
По умолчанию Re: Whitney Houston - Love, Whitney

Спасибо!
С Новым годом!
Здоровья Вам и Вашим близким!

Вверх
Пользователь сказал cпасибо:
sergych (31.12.2018)
Похожие темы
Тема Автор Раздел Ответов Последнее сообщение
Альбом Whitney Houston - I Look To You sergych Зарубежная Поп-Музыка 0 24.09.2016 16:25
Альбом Whitney Houston - Whitney Houston sergych Зарубежная Поп-Музыка 2 05.08.2016 20:34
Альбом Whitney Houston - My Love Is Your Love sergych Зарубежная Поп-Музыка 0 06.06.2015 23:11
Сборник Whitney Houston - I Will Always Love You: The Best of Whitney Houston sergych Зарубежная Поп-Музыка 0 22.12.2014 20:12
Альбом Whitney Houston - Whitney sergych Зарубежная Поп-Музыка 0 22.12.2014 19:40


Метки
2001 , love whitney , pop , r&b , soul , whitney houston

Опции темы

Ваши права в разделе
Вы не можете создавать новые темы
Вы не можете отвечать в темах
Вы не можете прикреплять вложения
Вы не можете редактировать свои сообщения

Быстрый переход



Текущее время: 01:22. Часовой пояс GMT +3.
Powered by vBulletin® Version 3.8.10
Copyright ©2000 - 2019, vBulletin Solutions, Inc. Перевод: zCarot
© 2008 - 2019 Taifun With Song
Яндекс.Метрика