TAIFUN With Song
Навигация
Folk (народная) Традиционная музыка отдельно взятого народа или культуры. Она несёт в себе частичку самобытности народа, отражает его ментальность.

А знаете ли Вы, что...
Чем прославился Боб Марли до того, как стать музыкантом?
«Знаменитый ямайский регги-музыкант Боб Марли в детстве был известен в своей деревне как талантливый предсказатель по линиям на ладонях.»
 
Опции темы

  #1
Старый 26.12.2018, 12:20
sergych
Координатор
Досье
 
Аватар для sergych
Релиз Cesaria Evora - Rogamar


2006 - Cesaria Evora - Rogamar




Исполнитель/Artist: Cesaria Evora
Альбом/Album: Rogamar
Год/Year: 2006
Жанр/Genre: Morna, Coladeira
Страна/Country: Россия
Рекорд-лейбл/Record label: Sony Music /СР Диджитал
Номер в каталоге/Catalogue #: 82876 78965 2
Формат/Format: Free Lossless Audio Codec (*.flac)
Качество/Quality: Lossless
Тип рипа/RIP Type: image+.cue
Продолжительность/Length: 00:59:59
Источник/Source: Собственный рип
Размер/Size: 433 MB


Треклист

01. Sombras Di Distino [0:04:36.67]
02. Un Pincelada [0:03:28.13]
03. Avenida Marginal [0:03:00.35]
04. Africa Nossa [0:03:53.69]
05. Tiche [0:04:16.48]
06. Sao Tome Na Equador [0:04:12.40]
07. Rogamar [0:03:33.55]
08. Amor E Mar [0:04:33.37]
09. Modje Trofel [0:03:28.65]
10. Rosie [0:04:16.53]
11. Travessa De Peixeira [0:03:22.68]
12. Mas Um Sonho [0:03:49.07]
13. Mar Nha Confidente [0:05:34.09]
14. Saiona D'Vinte Ano [0:03:44.45]
15. Vaga Lenta [0:04:06.62]
[свернуть]

Превью на YouTube

[свернуть]

EAC лог

Exact Audio Copy V1.0 beta 3 from 29. August 2011

EAC extraction logfile from 2. April 2015, 8:21

Cesaria Evora / Rogamar

Used drive : ATAPI iHAS124 D Adapter: 0 ID: 2

Read mode : Secure
Utilize accurate stream : Yes
Defeat audio cache : Yes
Make use of C2 pointers : No

Read offset correction : 6
Overread into Lead-In and Lead-Out : No
Fill up missing offset samples with silence : Yes
Delete leading and trailing silent blocks : No
Null samples used in CRC calculations : Yes
Used interface : Installed external ASPI interface

Used output format : User Defined Encoder
Selected bitrate : 1024 kBit/s
Quality : High
Add ID3 tag : No
Command line compressor : C:\Program Files (x86)\Exact Audio Copy\Flac\flac.exe
Additional command line options : -6 -V -T "ARTIST=%artist%" -T "TITLE=%title%" -T "ALBUM=%albumtitle%" -T "DATE=%year%" -T "TRACKNUMBER=%tracknr%" -T "GENRE=%genre%" -T "COMMENT=%comment%" -T "BAND=%albuminterpret%" -T "COMPOSER=%composer%" %haslyrics%--tag-from-file=LYRICS="%lyricsfile%"%haslyrics% -T "DISCNUMBER=%cdnumber%" -T "TOTALDISCS=%totalcds%" -T "TOTALTRACKS=%numtracks%" %hascover%--picture="%coverfile%"%hascover% %source% -o %dest%


TOC of the extracted CD

Track | Start | Length | Start sector | End sector
---------------------------------------------------------
1 | 0:00.00 | 4:36.67 | 0 | 20766
2 | 4:36.67 | 3:28.13 | 20767 | 36379
3 | 8:05.05 | 3:00.35 | 36380 | 49914
4 | 11:05.40 | 3:53.69 | 49915 | 67458
5 | 14:59.34 | 4:16.48 | 67459 | 86706
6 | 19:16.07 | 4:12.40 | 86707 | 105646
7 | 23:28.47 | 3:33.55 | 105647 | 121676
8 | 27:02.27 | 4:33.37 | 121677 | 142188
9 | 31:35.64 | 3:28.65 | 142189 | 157853
10 | 35:04.54 | 4:16.53 | 157854 | 177106
11 | 39:21.32 | 3:22.68 | 177107 | 192324
12 | 42:44.25 | 3:49.07 | 192325 | 209506
13 | 46:33.32 | 5:34.09 | 209507 | 234565
14 | 52:07.41 | 3:44.45 | 234566 | 251410
15 | 55:52.11 | 4:06.62 | 251411 | 269922


Range status and errors

Selected range

Filename C:\mm\Cesaria Evora\2006 - Rogamar [82876 78965 2]\Cesaria Evora - Rogamar.wav

Peak level 100.0 %
Extraction speed 9.5 X
Range quality 100.0 %
Test CRC 518C8450
Copy CRC 518C8450
Copy OK

No errors occurred


AccurateRip summary

Track 1 accurately ripped (confidence 2) [23A9A67C] (AR v2)
Track 2 accurately ripped (confidence 2) [A30A140A] (AR v2)
Track 3 accurately ripped (confidence 2) [9228E598] (AR v2)
Track 4 accurately ripped (confidence 2) [BE4BB7CE] (AR v2)
Track 5 accurately ripped (confidence 2) [0C42B54C] (AR v2)
Track 6 accurately ripped (confidence 2) [5DAE5E51] (AR v2)
Track 7 accurately ripped (confidence 2) [6A763988] (AR v2)
Track 8 accurately ripped (confidence 2) [5B267B1D] (AR v2)
Track 9 accurately ripped (confidence 2) [A519DD57] (AR v2)
Track 10 accurately ripped (confidence 2) [A1DEF017] (AR v2)
Track 11 accurately ripped (confidence 2) [FB6FF344] (AR v2)
Track 12 accurately ripped (confidence 2) [3054B4AD] (AR v2)
Track 13 accurately ripped (confidence 2) [BFB9439F] (AR v2)
Track 14 accurately ripped (confidence 2) [99DC9166] (AR v2)
Track 15 accurately ripped (confidence 2) [72D8C566] (AR v2)

All tracks accurately ripped

End of status report
[свернуть]

Файл CUE

REM GENRE Morna
REM DATE 2006
REM DISCID DD0E0E0F
REM COMMENT "ExactAudioCopy v1.0b3"
PERFORMER "Cesaria Evora"
TITLE "Rogamar"
FILE "Cesaria Evora - Rogamar.flac" WAVE
TRACK 01 AUDIO
TITLE "Sombras Di Distino"
PERFORMER "Cesaria Evora"
INDEX 01 00:00:00
TRACK 02 AUDIO
TITLE "Un Pincelada"
PERFORMER "Cesaria Evora"
INDEX 00 04:35:48
INDEX 01 04:36:67
TRACK 03 AUDIO
TITLE "Avenida Marginal"
PERFORMER "Cesaria Evora"
INDEX 00 08:03:22
INDEX 01 08:05:05
TRACK 04 AUDIO
TITLE "Africa Nossa"
PERFORMER "Cesaria Evora"
INDEX 00 11:04:55
INDEX 01 11:05:40
TRACK 05 AUDIO
TITLE "Tiche"
PERFORMER "Cesaria Evora"
INDEX 00 14:57:51
INDEX 01 14:59:34
TRACK 06 AUDIO
TITLE "Sao Tome Na Equador"
PERFORMER "Cesaria Evora"
INDEX 00 19:14:24
INDEX 01 19:16:07
TRACK 07 AUDIO
TITLE "Rogamar"
PERFORMER "Cesaria Evora"
INDEX 00 23:26:64
INDEX 01 23:28:47
TRACK 08 AUDIO
TITLE "Amor E Mar"
PERFORMER "Cesaria Evora"
INDEX 00 27:00:44
INDEX 01 27:02:27
TRACK 09 AUDIO
TITLE "Modje Trofel"
PERFORMER "Cesaria Evora"
INDEX 00 31:34:06
INDEX 01 31:35:64
TRACK 10 AUDIO
TITLE "Rosie"
PERFORMER "Cesaria Evora"
INDEX 00 35:02:71
INDEX 01 35:04:54
TRACK 11 AUDIO
TITLE "Travessa De Peixeira"
PERFORMER "Cesaria Evora"
INDEX 00 39:19:31
INDEX 01 39:21:32
TRACK 12 AUDIO
TITLE "Mas Um Sonho"
PERFORMER "Cesaria Evora"
INDEX 00 42:43:21
INDEX 01 42:44:25
TRACK 13 AUDIO
TITLE "Mar Nha Confidente"
PERFORMER "Cesaria Evora"
INDEX 00 46:31:49
INDEX 01 46:33:32
TRACK 14 AUDIO
TITLE "Saiona D'Vinte Ano"
PERFORMER "Cesaria Evora"
INDEX 00 52:05:16
INDEX 01 52:07:41
TRACK 15 AUDIO
TITLE "Vaga Lenta"
PERFORMER "Cesaria Evora"
INDEX 00 55:49:67
INDEX 01 55:52:11
[свернуть]

Лог проверки качества

AUDIOCHECKER v2.0 beta (build 457) - by Dester - [Ссылки могут видеть только зарегистрированные и активированные пользователи.]
[Only registered and activated users can see links.]
~~~~~~~~~~~~~~~~~~~~~~~~~~~~~~~~~~
-=== НЕ РЕДАКТИРУЙТЕ ЭТОТ ФАЙЛ! ===-

Путь: ...\2006 - Rogamar [82876 78965 2]

1 -=- Cesaria Evora - Rogamar.flac -=- MPEG (73%)

78918916
[свернуть]

Спектр частот

[свернуть]

Скачать Cesaria Evora - Rogamar

[Ссылки могут видеть только зарегистрированные и активированные пользователи.]
[Only registered and activated users can see links.]

password: sergych
[свернуть]

Контрольная сумма (хеш-сумма) архива

MD5: 12c5bbaf48de9ae263e56e00162b3d6f
[свернуть]
My opinion of release: 9/10

Release info RInfo

Опять же, найдено "в залежах". Рипнуто ещё в 2015 году, но, по какой-то причине, не было опубликовано.
__________________
TAIFUN.Wings of Soul

Вверх
3 пользователя(ей) сказали cпасибо:
Показать список поблагодаривших
  #2
Старый 05.01.2019, 23:49
johnsilver
Меломан
Досье
 
Аватар для johnsilver
По умолчанию Re: Cesaria Evora - Rogamar

Спасибо! Догадываюсь, по какой причине не было опубликовано раньше - этот диск идентичен диску из этой коллекции с точностью до CRC: https://taifun.ws/showthread.php?t=2...=Cesaria+Evora

С наступившим НГ и наступающим Рождеством Всех меломанов! Всех благ, здоровья и удачи в НГ!


Последний раз редактировалось johnsilver, 06.01.2019 в 00:03.
Вверх
2 пользователя(ей) сказали cпасибо:
sergych (06.01.2019), TAIFUN (06.01.2019)
  #3
Старый 06.01.2019, 11:11
sergych
Координатор
Досье
 
Аватар для sergych
По умолчанию Re: Cesaria Evora - Rogamar

johnsilver, Возможно. За давностью причин уже не вспомню. Да и рипнуты были с разницей пару дней. Видимо, выбирая из 2х одинаковых рипов, отдал предпочтение немецкому боксу, пожертвовав разницей в буклете российского издания.

С состоявшимся НГ и очередное спасибо за внимательность
__________________
TAIFUN.Wings of Soul

Вверх
2 пользователя(ей) сказали cпасибо:
johnsilver (06.01.2019), TAIFUN (06.01.2019)
Похожие темы
Тема Автор Раздел Ответов Последнее сообщение
Сборник Cesaria Evora - La Collection sergych Folk (народная) 0 04.04.2015 22:15
Альбом Cesaria Evora - Cesaria Evora & ... sergych Folk (народная) 0 04.03.2015 20:48
Альбом Cesaria Evora - Nha Sentimento sergych Folk (народная) 0 06.02.2015 17:51
Сборник Cesaria Evora - Anthologie sergych Folk (народная) 0 23.01.2015 21:35
Релиз Cesaria Evora - Grand Collection fly123 Jazz и Blues 0 18.12.2011 16:48


Метки
2006 , cesaria evora , coladeira , morna , rogamar

Опции темы

Ваши права в разделе
Вы не можете создавать новые темы
Вы не можете отвечать в темах
Вы не можете прикреплять вложения
Вы не можете редактировать свои сообщения

Быстрый переход



Текущее время: 00:45. Часовой пояс GMT +3.
Powered by vBulletin® Version 3.8.10
Copyright ©2000 - 2019, vBulletin Solutions, Inc. Перевод: zCarot
© 2008 - 2019 Taifun With Song
Яндекс.Метрика